VERSION	0.00.00	1.03.00
FES_MODE	0
BPM_DEF	146.000	146.000	146.000	146.000
MET_DEF	4	4
RESOLUTION	384
CLK_DEF	384
COMPATIBLE_CODE	MA2

BPM	0	0	146.000
MET	0	0	4	4

TAP	1	0	1
TAP	1	0	6
TAP	1	336	0
TAP	1	336	7
TAP	2	0	1
TAP	2	0	6
TAP	2	336	0
TAP	2	336	7
TAP	3	0	1
TAP	3	0	6
TAP	4	0	7
TAP	4	32	0
TAP	4	64	7
TAP	4	96	1
TAP	4	128	0
TAP	4	160	1
BRK	4	192	7
TAP	5	0	7
TAP	5	72	1
TAP	5	96	7
TAP	5	192	7
TAP	5	264	1
TAP	5	288	7
TAP	6	0	0
TAP	6	72	7
TAP	6	96	0
TAP	6	192	0
TAP	6	264	7
TAP	6	288	0
TAP	6	336	6
STR	7	0	1
SI_	7	0	1	96	192	6
TAP	8	0	2
TAP	8	72	4
TAP	8	96	2
TAP	8	192	2
TAP	8	264	4
TAP	8	288	2
TAP	9	0	5
TAP	9	72	3
TAP	9	96	5
TAP	9	192	5
TAP	9	264	3
TAP	9	288	5
TAP	10	0	3
TAP	10	72	4
TAP	10	96	3
TAP	10	192	3
TAP	10	264	4
TAP	10	288	3
TAP	10	336	5
STR	11	0	4
SI_	11	0	4	96	192	1
TAP	12	0	6
TAP	12	72	4
TAP	12	96	6
TAP	12	192	6
TAP	12	264	4
TAP	12	288	6
TAP	13	0	2
TAP	13	72	4
TAP	13	96	2
TAP	13	192	2
TAP	13	264	4
TAP	13	288	2
TAP	14	0	5
TAP	14	72	4
TAP	14	96	5
TAP	14	144	6
TAP	14	192	5
TAP	14	264	4
TAP	14	288	5
TAP	14	336	6
STR	15	0	6
SI_	15	0	6	96	192	1
TAP	16	0	6
TAP	16	72	0
TAP	16	96	6
TAP	16	192	6
TAP	16	264	0
TAP	16	288	6
TAP	17	0	1
TAP	17	72	7
TAP	17	96	1
TAP	17	192	1
TAP	17	264	7
TAP	17	288	1
TAP	18	0	2
TAP	18	72	3
TAP	18	96	2
TAP	18	144	1
TAP	18	192	2
TAP	18	264	3
TAP	18	288	2
TAP	18	336	1
TAP	19	0	0
TAP	19	192	7
TAP	20	0	0
TAP	20	32	7
TAP	20	64	0
TAP	20	96	6
TAP	20	128	7
TAP	20	160	6
BRK	20	192	0
TAP	21	0	4
TAP	21	72	2
TAP	21	144	4
TAP	21	192	4
TAP	21	264	2
TAP	21	336	4
TAP	22	0	3
TAP	22	72	5
TAP	22	144	3
TAP	22	192	3
TAP	22	264	5
TAP	22	336	3
TAP	23	0	1
TAP	23	72	3
TAP	23	144	1
TAP	23	192	1
TAP	23	264	3
TAP	23	336	1
TAP	24	0	6
TAP	24	72	4
TAP	24	144	6
TAP	24	192	6
TAP	24	264	4
TAP	24	336	6
TAP	25	0	2
TAP	25	72	2
TAP	25	144	4
TAP	25	192	2
TAP	25	264	2
TAP	25	336	4
TAP	26	0	5
TAP	26	72	5
TAP	26	144	3
TAP	26	192	5
TAP	26	264	5
TAP	26	336	3
TAP	27	0	2
TAP	27	72	2
TAP	27	144	0
TAP	27	192	2
TAP	27	264	2
TAP	27	336	0
TAP	28	0	5
TAP	28	72	5
TAP	28	144	7
TAP	28	192	5
TAP	28	264	5
TAP	28	336	7
STR	29	0	6
SCL	29	0	6	96	192	3
STR	30	0	1
SCR	30	0	1	96	192	4
STR	31	0	5
SCL	31	0	5	96	192	2
STR	32	0	2
SCR	32	0	2	96	192	5
STR	33	0	4
SCL	33	0	4	96	192	1
STR	34	0	3
SCR	34	0	3	96	192	6
STR	35	0	3
SCL	35	0	3	96	192	0
TAP	36	0	6
TAP	36	24	6
TAP	36	72	6
TAP	36	96	0
TAP	36	120	0
TAP	36	168	0
TAP	36	192	7
TAP	36	216	7
TAP	36	264	7
TAP	36	288	1
TAP	36	336	1
TAP	36	336	6
TAP	38	0	0
TAP	38	0	7
TAP	38	144	6
TAP	38	144	7
TAP	38	216	0
TAP	38	216	7
TAP	38	288	0
TAP	38	288	1
TAP	39	0	7
TAP	39	72	6
TAP	39	96	0
TAP	39	144	7
TAP	39	192	7
TAP	39	264	6
TAP	39	288	0
TAP	39	336	7
HLD	40	0	7	72
TAP	40	72	6
TAP	40	144	5
HLD	40	192	0	72
TAP	40	264	1
TAP	40	336	2
TAP	41	0	0
TAP	41	72	1
TAP	41	96	7
TAP	41	144	0
TAP	41	192	0
TAP	41	264	1
TAP	41	288	7
TAP	41	336	0
HLD	42	0	0	72
TAP	42	72	1
TAP	42	144	2
HLD	42	192	7	72
TAP	42	264	6
TAP	42	336	5
TAP	43	0	4
TAP	43	72	3
TAP	43	96	5
TAP	43	144	4
HLD	43	192	3	96
TAP	44	0	3
TAP	44	72	4
TAP	44	96	2
TAP	44	144	3
HLD	44	192	4	96
TAP	45	0	5
TAP	45	72	4
TAP	45	96	3
TAP	45	144	2
TAP	45	192	2
TAP	45	264	3
TAP	45	288	4
TAP	45	336	5
TAP	46	0	5
TAP	46	72	4
TAP	46	96	3
TAP	46	144	2
TAP	46	192	2
TAP	46	264	3
TAP	46	288	4
TAP	46	336	5
HLD	47	0	6	384
TAP	47	96	7
TAP	47	192	0
TAP	47	288	7
HLD	48	0	1	384
TAP	48	96	0
TAP	48	192	7
TAP	48	288	0
HLD	49	0	6	384
TAP	49	96	7
TAP	49	192	0
TAP	49	288	7
TAP	50	48	0
STR	50	96	0
SI_	50	96	0	96	96	3
STR	50	96	7
SI_	50	96	7	96	96	4
TAP	51	0	2
TAP	51	96	3
TAP	51	192	5
TAP	51	288	4
TAP	52	0	1
TAP	52	96	2
TAP	52	192	6
TAP	52	288	5
TAP	53	0	0
TAP	53	96	1
TAP	53	192	7
TAP	53	288	6
STR	54	0	0
SI_	54	0	0	96	96	3
STR	54	192	7
SI_	54	192	7	96	96	4
TAP	55	0	0
TAP	55	32	7
TAP	55	64	0
TAP	55	96	1
TAP	55	128	0
TAP	55	160	7
TAP	55	192	6

T_REC_TAP	241
T_REC_BRK	2
T_REC_XTP	0
T_REC_HLD	9
T_REC_XHO	0
T_REC_STR	14
T_REC_BST	0
T_REC_XST	0
T_REC_TTP	0
T_REC_THO	0
T_REC_SLD	14
T_REC_ALL	280
T_NUM_TAP	255
T_NUM_BRK	2
T_NUM_HLD	9
T_NUM_SLD	14
T_NUM_ALL	280
T_JUDGE_TAP	257
T_JUDGE_HLD	36
T_JUDGE_SLD	14
T_JUDGE_ALL	307
TTM_EACHPAIRS	11
TTM_SCR_TAP	127500
TTM_SCR_BRK	5200
TTM_SCR_HLD	9000
TTM_SCR_SLD	21000
TTM_SCR_ALL	162700
TTM_SCR_S	157650
TTM_SCR_SS	162500
TTM_RAT_ACV	10012

