VERSION	0.00.00	1.03.00
FES_MODE	0
BPM_DEF	146.000	146.000	146.000	146.000
MET_DEF	4	4
RESOLUTION	384
CLK_DEF	384
COMPATIBLE_CODE	MA2

BPM	0	0	146.000
MET	0	0	4	4

TAP	1	0	1
TAP	1	0	6
TAP	1	336	0
TAP	1	336	7
TAP	2	0	0
TAP	2	0	7
TAP	2	336	1
TAP	2	336	6
TAP	3	0	0
TAP	3	0	7
TAP	4	0	6
TAP	4	96	7
TAP	4	192	0
TAP	5	0	5
TAP	5	96	7
TAP	5	192	2
TAP	5	288	0
HLD	6	0	6	48
HLD	6	96	7	48
HLD	6	192	0	48
HLD	6	288	1	48
STR	7	0	2
SI_	7	0	2	96	96	5
TAP	8	0	6
TAP	8	96	7
TAP	8	192	6
TAP	8	288	7
TAP	9	0	6
TAP	9	96	4
TAP	9	192	1
TAP	9	288	3
HLD	10	0	2	48
HLD	10	96	3	48
HLD	10	192	4	48
HLD	10	288	5	48
STR	11	0	6
SI_	11	0	6	96	96	1
TAP	12	0	2
TAP	12	96	3
TAP	12	192	2
TAP	12	288	3
HLD	13	0	4	288
TAP	13	96	6
TAP	13	192	0
TAP	13	288	2
HLD	14	0	3	288
TAP	14	96	1
TAP	14	192	7
TAP	14	288	5
STR	15	0	6
SI_	15	0	6	96	96	1
TAP	16	0	6
TAP	16	96	1
TAP	16	192	6
TAP	16	288	1
HLD	17	0	7	288
TAP	17	96	5
TAP	17	192	3
TAP	17	288	1
HLD	18	0	0	288
TAP	18	96	2
TAP	18	192	4
TAP	18	288	6
TAP	19	0	3
TAP	19	0	4
TAP	19	192	2
TAP	19	192	5
TAP	20	0	0
TAP	20	96	7
TAP	20	192	0
TAP	21	0	4
TAP	21	96	3
TAP	21	96	5
TAP	21	192	3
TAP	21	288	2
TAP	21	288	4
TAP	22	96	0
TAP	22	96	2
TAP	22	288	5
TAP	22	288	7
TAP	23	0	4
TAP	23	96	3
TAP	23	96	5
TAP	23	192	3
TAP	23	288	2
TAP	23	288	4
TAP	24	96	0
TAP	24	96	6
TAP	24	288	1
TAP	24	288	7
TAP	25	0	4
TAP	25	96	3
TAP	25	96	5
TAP	25	192	3
TAP	25	288	2
TAP	25	288	4
TAP	26	96	1
TAP	26	96	5
TAP	26	288	2
TAP	26	288	6
TAP	27	0	4
TAP	27	96	3
TAP	27	96	5
TAP	27	192	3
TAP	27	288	2
TAP	27	288	4
TAP	28	96	0
TAP	28	96	7
TAP	28	288	3
TAP	28	288	4
STR	29	0	5
SCR	29	0	5	96	96	0
TAP	30	0	1
TAP	30	96	2
TAP	30	192	1
STR	31	0	2
SCL	31	0	2	96	96	7
TAP	32	0	6
TAP	32	96	5
TAP	32	192	6
STR	33	0	5
SCL	33	0	5	96	96	2
TAP	34	0	1
TAP	34	96	0
TAP	34	192	1
STR	35	0	1
SCL	35	0	1	96	96	6
TAP	36	0	5
TAP	36	96	0
TAP	36	192	7
TAP	36	288	2
BRK	36	336	1
BRK	36	336	6
TAP	38	0	0
TAP	38	0	7
TAP	38	144	6
TAP	38	216	1
BRK	38	288	0
BRK	38	288	7
HLD	39	0	5	672
TAP	39	96	2
TAP	39	192	1
TAP	39	288	2
TAP	40	0	1
TAP	40	96	2
TAP	40	192	1
HLD	41	0	6	672
TAP	41	96	3
TAP	41	192	2
TAP	41	288	3
TAP	42	0	2
TAP	42	96	3
TAP	42	192	2
TAP	43	0	0
HLD	43	0	7	192
TAP	43	96	2
HLD	44	0	6	192
TAP	44	0	7
TAP	44	96	0
TAP	45	0	0
TAP	45	96	1
TAP	45	192	7
TAP	45	288	6
TAP	46	0	4
TAP	46	96	5
TAP	46	192	3
TAP	46	288	2
HLD	47	0	2	672
TAP	47	96	6
TAP	47	192	5
TAP	47	288	6
TAP	48	0	5
TAP	48	96	6
TAP	48	192	5
HLD	49	0	3	288
TAP	49	0	6
TAP	49	96	5
TAP	49	192	6
STR	50	0	2
SI_	50	0	2	96	96	6
TAP	51	0	5
TAP	51	96	7
TAP	51	192	2
TAP	51	288	0
TAP	52	0	6
TAP	52	96	4
TAP	52	192	1
TAP	52	288	3
HLD	53	0	6	192
TAP	53	96	1
HLD	53	192	0	192
TAP	53	288	7
TAP	54	0	1
TAP	54	96	2
TAP	54	96	5
TAP	54	192	6
TAP	54	288	2
TAP	54	288	5
TAP	55	0	1
TAP	55	0	7
TAP	55	96	0
TAP	55	96	6
TAP	55	192	1
TAP	55	192	7

T_REC_TAP	164
T_REC_BRK	4
T_REC_XTP	0
T_REC_HLD	20
T_REC_XHO	0
T_REC_STR	8
T_REC_BST	0
T_REC_XST	0
T_REC_TTP	0
T_REC_THO	0
T_REC_SLD	8
T_REC_ALL	204
T_NUM_TAP	172
T_NUM_BRK	4
T_NUM_HLD	20
T_NUM_SLD	8
T_NUM_ALL	204
T_JUDGE_TAP	176
T_JUDGE_HLD	96
T_JUDGE_SLD	8
T_JUDGE_ALL	280
TTM_EACHPAIRS	34
TTM_SCR_TAP	86000
TTM_SCR_BRK	10400
TTM_SCR_HLD	20000
TTM_SCR_SLD	12000
TTM_SCR_ALL	128400
TTM_SCR_S	124200
TTM_SCR_SS	128000
TTM_RAT_ACV	10031

