VERSION	0.00.00	1.03.00
FES_MODE	0
BPM_DEF	146.000	146.000	146.000	146.000
MET_DEF	4	4
RESOLUTION	384
CLK_DEF	384
COMPATIBLE_CODE	MA2

BPM	0	0	146.000
MET	0	0	4	4

TAP	1	0	0
TAP	2	0	0
TAP	3	0	0
TAP	4	0	7
TAP	4	96	7
TAP	4	192	0
TAP	5	0	1
TAP	5	96	2
TAP	5	192	3
TAP	5	288	2
TAP	6	0	1
TAP	6	96	2
TAP	6	192	3
TAP	6	288	2
STR	7	0	1
SI_	7	0	1	96	192	4
TAP	9	0	5
TAP	9	96	4
TAP	9	192	3
TAP	9	288	4
TAP	10	0	5
TAP	10	96	4
TAP	10	192	3
TAP	10	288	4
STR	11	0	5
SI_	11	0	5	96	192	2
TAP	13	0	3
TAP	13	96	2
TAP	13	192	1
TAP	13	288	2
TAP	14	0	3
TAP	14	96	2
TAP	14	192	1
TAP	14	288	2
STR	15	0	3
SI_	15	0	3	96	192	0
TAP	17	0	6
TAP	17	96	5
TAP	17	192	4
TAP	17	288	5
TAP	18	0	6
TAP	18	96	5
TAP	18	192	4
TAP	18	288	5
TAP	19	0	6
TAP	19	192	1
TAP	20	0	7
TAP	20	96	7
TAP	20	192	0
TAP	21	96	2
TAP	21	192	2
TAP	21	288	2
TAP	22	0	3
TAP	22	96	4
TAP	22	192	5
TAP	23	96	4
TAP	23	192	4
TAP	23	288	4
TAP	24	0	5
TAP	24	96	6
TAP	24	192	7
TAP	25	96	0
TAP	25	192	0
TAP	25	288	0
TAP	26	0	1
TAP	26	96	2
TAP	26	192	3
TAP	27	96	7
TAP	27	192	7
TAP	27	288	7
TAP	28	0	0
TAP	28	96	1
TAP	28	192	2
HLD	29	0	3	192
HLD	30	0	4	192
HLD	31	0	2	192
HLD	32	0	5	192
HLD	33	0	1	192
HLD	34	0	6	192
TAP	35	0	0
TAP	35	0	7
TAP	35	192	0
TAP	35	192	7
TAP	36	0	0
TAP	36	96	7
TAP	36	192	1
TAP	36	288	6
TAP	38	0	1
BRK	38	288	0
STR	39	0	7
SI_	39	0	7	96	192	2
TAP	40	192	3
TAP	40	288	2
STR	41	0	1
SI_	41	0	1	96	192	4
TAP	42	192	4
TAP	42	288	5
STR	43	0	6
SI_	43	0	6	96	192	1
TAP	44	192	5
TAP	44	288	6
STR	45	0	7
SI_	45	0	7	96	192	4
TAP	47	0	0
TAP	47	96	1
TAP	47	192	0
TAP	47	288	1
TAP	48	0	7
TAP	48	96	0
TAP	48	192	7
TAP	48	288	0
TAP	49	0	6
TAP	49	96	7
TAP	49	192	6
TAP	49	288	7
TAP	50	48	6
TAP	50	96	6
TAP	50	192	1
TAP	50	192	6
TAP	51	96	0
TAP	51	192	6
TAP	51	288	0
TAP	52	0	7
TAP	52	96	1
TAP	52	192	7
TAP	52	288	0
HLD	53	0	6	96
HLD	53	192	1	96
TAP	54	0	7
TAP	54	96	6
TAP	54	192	0
TAP	54	288	1
TAP	55	0	7
TAP	55	96	0
BRK	55	192	7

T_REC_TAP	111
T_REC_BRK	2
T_REC_XTP	0
T_REC_HLD	8
T_REC_XHO	0
T_REC_STR	7
T_REC_BST	0
T_REC_XST	0
T_REC_TTP	0
T_REC_THO	0
T_REC_SLD	7
T_REC_ALL	135
T_NUM_TAP	118
T_NUM_BRK	2
T_NUM_HLD	8
T_NUM_SLD	7
T_NUM_ALL	135
T_JUDGE_TAP	120
T_JUDGE_HLD	28
T_JUDGE_SLD	7
T_JUDGE_ALL	155
TTM_EACHPAIRS	3
TTM_SCR_TAP	59000
TTM_SCR_BRK	5200
TTM_SCR_HLD	8000
TTM_SCR_SLD	10500
TTM_SCR_ALL	82700
TTM_SCR_S	80050
TTM_SCR_SS	82500
TTM_RAT_ACV	10024

