VERSION	0.00.00	1.03.00
FES_MODE	0
BPM_DEF	171.000	171.000	171.000	171.000
MET_DEF	4	4
RESOLUTION	384
CLK_DEF	384
COMPATIBLE_CODE	MA2

BPM	0	0	171.000
MET	0	0	4	4

HLD	3	0	0	288
HLD	3	0	7	288
TAP	4	0	1
TAP	4	96	1
TAP	4	192	1
TAP	4	288	1
TAP	5	0	0
TAP	5	48	6
TAP	5	96	7
TAP	5	144	0
TAP	5	192	1
TAP	5	240	0
TAP	5	288	7
TAP	5	336	6
TAP	6	0	7
TAP	6	48	0
TAP	6	96	1
TAP	6	144	6
TAP	6	192	7
TAP	6	240	0
TAP	6	288	7
TAP	7	0	0
TAP	7	24	1
TAP	7	96	1
TAP	7	120	2
TAP	7	192	2
TAP	7	216	3
TAP	7	288	3
TAP	7	312	4
TAP	8	0	4
TAP	8	24	5
TAP	8	96	5
TAP	8	120	6
TAP	8	192	6
TAP	8	240	7
TAP	8	264	0
BRK	8	288	7
TAP	9	0	7
TAP	9	48	1
TAP	9	96	0
TAP	9	144	7
TAP	9	192	6
TAP	9	240	7
TAP	9	288	0
TAP	9	336	1
TAP	10	0	0
TAP	10	48	7
TAP	10	96	6
TAP	10	144	1
TAP	10	192	0
TAP	10	240	7
TAP	10	288	0
TAP	11	0	7
TAP	11	24	6
TAP	11	96	6
TAP	11	120	5
TAP	11	192	5
TAP	11	216	4
TAP	11	288	4
TAP	11	312	3
TAP	12	0	3
TAP	12	24	2
TAP	12	96	2
TAP	12	120	1
TAP	12	192	1
TAP	12	192	6
HLD	13	0	0	96
HLD	13	0	7	96
TAP	13	192	1
TAP	13	240	1
TAP	13	288	2
TAP	13	336	3
TAP	14	0	2
TAP	14	96	3
TAP	14	144	1
TAP	14	240	1
TAP	14	288	2
TAP	14	336	3
TAP	15	0	0
TAP	15	48	7
TAP	15	96	0
TAP	15	144	7
TAP	15	192	6
TAP	15	240	6
TAP	15	288	5
TAP	15	336	4
TAP	16	0	5
TAP	16	96	4
TAP	16	144	6
TAP	16	240	6
TAP	16	288	5
TAP	16	336	4
TAP	17	0	7
TAP	17	48	0
TAP	17	96	7
TAP	17	144	0
TAP	17	192	1
TAP	17	240	1
TAP	17	288	2
TAP	17	336	3
TAP	18	0	6
TAP	18	48	6
TAP	18	96	5
TAP	18	144	4
TAP	18	192	3
TAP	18	240	2
TAP	18	288	1
STR	18	336	0
SI_	18	336	0	96	96	4
TAP	19	192	5
TAP	19	240	5
TAP	19	288	4
TAP	19	336	3
TAP	20	0	2
TAP	20	48	2
TAP	20	96	3
TAP	20	144	4
TAP	21	192	0
TAP	21	192	5
TAP	21	288	1
TAP	21	288	6
TAP	22	0	0
TAP	22	0	5
TAP	22	96	1
TAP	22	96	6
TAP	22	192	2
TAP	22	192	7
TAP	22	288	1
TAP	22	288	6
TAP	23	0	2
TAP	23	0	7
TAP	23	96	1
TAP	23	96	6
STR	23	192	0
SI_	23	192	0	96	96	3
STR	24	0	7
SI_	24	0	7	96	96	4
STR	24	192	1
SI_	24	192	1	96	96	6
STR	24	336	2
SI_	24	336	2	96	96	5
TAP	25	192	1
TAP	25	192	4
TAP	25	288	2
TAP	25	288	5
TAP	26	0	1
TAP	26	0	4
TAP	26	96	2
TAP	26	96	5
TAP	26	192	3
TAP	26	192	6
TAP	26	288	2
TAP	26	288	5
TAP	27	0	3
TAP	27	0	6
TAP	27	96	2
TAP	27	96	5
BRK	27	192	3
BRK	27	192	4
TAP	27	336	2
TAP	27	336	5
BRK	28	0	3
BRK	28	0	4
BRK	28	192	0
TAP	28	192	4
TAP	28	288	3
BRK	28	288	7
BRK	29	0	0
TAP	29	0	4
HLD	30	192	7	96
HLD	30	288	1	96
HLD	31	0	5	96
HLD	31	96	3	96
HLD	31	192	0	288
TAP	31	288	1
TAP	31	336	2
TAP	32	0	3
HLD	32	96	4	288
TAP	32	192	5
TAP	32	240	6
TAP	32	288	7
HLD	33	0	0	96
TAP	33	192	7
TAP	33	240	6
TAP	33	288	5
TAP	33	336	4
TAP	34	0	0
TAP	34	48	1
TAP	34	96	2
TAP	34	144	3
TAP	34	192	4
TAP	34	288	3
TAP	34	288	5
TAP	35	0	2
TAP	35	0	4
TAP	35	96	5
TAP	35	144	6
HLD	35	192	7	288
TAP	35	288	6
TAP	35	336	5
TAP	36	0	4
HLD	36	96	3	288
TAP	36	192	2
TAP	36	240	1
TAP	36	288	0
HLD	37	0	7	96
TAP	37	192	0
TAP	37	240	1
TAP	37	288	2
TAP	37	336	3
TAP	38	0	7
TAP	38	48	6
TAP	38	96	5
TAP	38	144	4
TAP	38	192	3
BRK	38	288	0
TAP	38	288	4
TAP	39	0	3
BRK	39	0	7
HLD	41	192	0	288
HLD	41	192	7	288
TAP	42	192	6
TAP	42	288	6
TAP	43	0	6
TAP	43	96	6
TAP	43	192	7
TAP	43	240	1
TAP	43	288	0
TAP	43	336	7
TAP	44	0	6
TAP	44	48	7
TAP	44	96	0
TAP	44	144	1
TAP	44	192	0
TAP	44	240	7
TAP	44	288	6
TAP	44	336	1
TAP	45	0	0
TAP	45	48	7
TAP	45	96	0
TAP	45	192	7
TAP	45	216	6
TAP	45	288	6
TAP	45	312	5
TAP	46	0	5
TAP	46	24	4
TAP	46	96	4
TAP	46	120	3
TAP	46	192	3
TAP	46	216	2
TAP	46	288	2
TAP	46	312	1
TAP	47	0	1
TAP	47	0	6
TAP	47	192	3
TAP	47	192	4
TAP	47	288	6
TAP	47	336	7
HLD	48	0	0	96
HLD	48	96	1	96
HLD	48	192	7	96
HLD	48	288	6	96
TAP	49	0	5
TAP	49	48	4
TAP	49	96	3
TAP	49	144	2
HLD	49	192	1	96
TAP	50	0	6
TAP	50	48	6
STR	50	96	6
SI_	50	96	6	96	96	1
TAP	50	192	2
TAP	50	240	2
STR	50	288	2
SI_	50	288	2	96	96	5
STR	51	96	0
SI_	51	96	0	96	96	4
TAP	51	288	1
TAP	51	336	0
HLD	52	0	7	96
HLD	52	96	6	96
HLD	52	192	0	96
HLD	52	288	1	96
TAP	53	0	2
TAP	53	48	3
TAP	53	96	4
TAP	53	144	5
HLD	53	192	6	96
TAP	54	0	0
TAP	54	48	0
STR	54	96	0
SI_	54	96	0	96	96	5
TAP	54	192	4
TAP	54	240	4
STR	54	288	4
SI_	54	288	4	96	96	1
STR	55	96	6
SI_	55	96	6	96	96	2
HLD	56	0	1	288
TAP	56	96	0
TAP	56	144	0
TAP	56	192	7
HLD	56	288	6	288
TAP	57	0	7
TAP	57	48	7
TAP	57	96	0
TAP	57	144	1
HLD	57	192	1	96
TAP	57	288	0
HLD	58	0	7	192
TAP	58	48	6
TAP	58	96	5
TAP	58	144	4
HLD	58	192	0	192
TAP	58	240	1
TAP	58	288	2
TAP	58	336	3
TAP	59	0	4
TAP	59	96	2
TAP	59	96	5
TAP	59	192	2
TAP	59	192	5
HLD	60	0	6	288
TAP	60	96	7
TAP	60	144	7
TAP	60	192	0
HLD	60	288	1	288
TAP	61	0	0
TAP	61	48	0
TAP	61	96	7
TAP	61	144	6
HLD	61	192	6	96
TAP	61	288	7
HLD	62	0	0	192
TAP	62	48	1
BRK	62	96	2
TAP	62	144	3
HLD	62	192	7	192
TAP	62	240	6
BRK	62	288	5
TAP	62	336	4
TAP	63	0	3
BRK	63	96	0
BRK	63	96	7
BRK	63	192	3
BRK	63	192	4

T_REC_TAP	272
T_REC_BRK	16
T_REC_XTP	0
T_REC_HLD	36
T_REC_XHO	0
T_REC_STR	11
T_REC_BST	0
T_REC_XST	0
T_REC_TTP	0
T_REC_THO	0
T_REC_SLD	11
T_REC_ALL	346
T_NUM_TAP	283
T_NUM_BRK	16
T_NUM_HLD	36
T_NUM_SLD	11
T_NUM_ALL	346
T_JUDGE_TAP	299
T_JUDGE_HLD	128
T_JUDGE_SLD	11
T_JUDGE_ALL	438
TTM_EACHPAIRS	36
TTM_SCR_TAP	141500
TTM_SCR_BRK	41600
TTM_SCR_HLD	36000
TTM_SCR_SLD	16500
TTM_SCR_ALL	235600
TTM_SCR_S	227000
TTM_SCR_SS	234000
TTM_RAT_ACV	10068

