VERSION	0.00.00	1.03.00
FES_MODE	0
BPM_DEF	171.000	171.000	171.000	171.000
MET_DEF	4	4
RESOLUTION	384
CLK_DEF	384
COMPATIBLE_CODE	MA2

BPM	0	0	171.000
MET	0	0	4	4

TAP	1	96	0
TAP	1	144	0
TAP	1	288	0
TAP	2	96	0
TAP	2	144	0
TAP	2	288	0
TAP	3	96	0
TAP	3	144	0
TAP	3	288	0
TAP	4	0	7
TAP	4	96	7
TAP	4	192	7
TAP	4	288	7
TAP	5	0	0
TAP	5	0	1
TAP	5	192	6
TAP	5	192	7
TAP	6	0	0
TAP	6	0	1
TAP	6	96	0
TAP	6	96	7
TAP	6	192	6
TAP	6	192	7
TAP	7	0	5
TAP	7	0	6
TAP	7	96	4
TAP	7	96	5
TAP	7	192	3
TAP	7	192	4
TAP	7	288	2
TAP	7	288	3
TAP	8	0	1
TAP	8	0	2
TAP	8	96	0
TAP	8	96	1
TAP	8	192	0
TAP	8	192	7
TAP	9	0	6
TAP	9	0	7
TAP	9	192	0
TAP	9	192	1
TAP	10	0	6
TAP	10	0	7
TAP	10	96	0
TAP	10	96	7
TAP	10	192	0
TAP	10	192	1
TAP	11	0	1
TAP	11	0	2
TAP	11	96	2
TAP	11	96	3
TAP	11	192	3
TAP	11	192	4
TAP	11	288	4
TAP	11	288	5
TAP	12	0	5
TAP	12	0	6
TAP	12	96	6
TAP	12	96	7
TAP	12	192	0
TAP	12	192	7
HLD	13	0	2	96
HLD	13	0	5	96
TAP	13	288	1
TAP	13	336	1
TAP	14	96	2
TAP	14	288	1
TAP	14	336	1
TAP	15	0	7
TAP	15	96	7
TAP	15	288	6
TAP	15	336	6
TAP	16	96	5
TAP	16	288	6
TAP	16	336	6
TAP	17	0	0
TAP	17	96	0
TAP	17	192	7
TAP	18	0	0
STR	18	192	1
SCL	18	192	1	96	192	6
TAP	19	192	0
TAP	20	0	7
TAP	20	192	6
TAP	20	240	6
BRK	20	336	6
TAP	21	192	5
TAP	21	288	4
TAP	22	0	5
TAP	22	96	4
TAP	22	192	3
TAP	22	288	4
TAP	23	0	3
TAP	23	96	4
TAP	23	192	3
TAP	23	288	2
TAP	24	0	3
TAP	24	96	2
STR	24	192	1
SI_	24	192	1	96	96	5
TAP	25	192	2
TAP	25	288	3
TAP	26	0	2
TAP	26	96	3
TAP	26	192	5
TAP	26	288	4
TAP	27	0	5
TAP	27	96	4
TAP	27	192	5
TAP	27	192	6
TAP	28	0	1
TAP	28	0	2
BRK	28	192	6
TAP	28	192	7
TAP	28	288	0
BRK	28	288	1
BRK	29	0	6
TAP	29	0	7
TAP	30	192	0
TAP	30	192	7
TAP	30	288	1
TAP	30	288	6
TAP	31	0	2
TAP	31	0	5
TAP	31	96	3
TAP	31	96	4
TAP	31	192	6
TAP	31	288	5
TAP	32	0	4
TAP	32	96	3
TAP	32	96	4
TAP	32	192	2
TAP	32	288	1
TAP	33	0	0
TAP	33	96	0
TAP	33	96	7
TAP	33	192	6
TAP	33	288	0
TAP	33	336	0
TAP	34	0	1
TAP	34	96	7
TAP	34	144	7
TAP	34	192	6
TAP	34	288	1
TAP	35	0	6
TAP	35	192	1
TAP	35	288	2
TAP	36	0	3
TAP	36	96	3
TAP	36	96	4
TAP	36	192	5
TAP	36	288	6
TAP	37	0	7
TAP	37	96	0
TAP	37	96	7
TAP	37	192	1
TAP	37	288	7
TAP	37	336	7
TAP	38	0	6
TAP	38	96	0
TAP	38	144	0
TAP	38	192	1
BRK	38	288	0
TAP	38	288	6
TAP	39	0	1
BRK	39	0	7
TAP	39	288	7
TAP	39	336	7
TAP	40	96	7
TAP	40	288	7
TAP	40	336	7
TAP	41	96	7
TAP	41	288	7
TAP	41	336	7
TAP	42	96	7
TAP	42	192	0
TAP	42	288	0
TAP	43	0	0
TAP	43	96	0
TAP	43	192	6
TAP	43	192	7
TAP	44	0	0
TAP	44	0	1
TAP	44	192	6
TAP	44	192	7
TAP	44	288	0
TAP	44	288	7
TAP	45	0	0
TAP	45	0	1
TAP	45	192	1
TAP	45	192	2
TAP	45	288	2
TAP	45	288	3
TAP	46	0	3
TAP	46	0	4
TAP	46	96	4
TAP	46	96	5
TAP	46	192	5
TAP	46	192	6
TAP	46	288	6
TAP	46	288	7
TAP	47	0	0
TAP	47	0	7
HLD	47	192	1	96
HLD	47	192	6	96
STR	48	0	0
SCR	48	0	0	96	192	3
STR	49	0	4
SCR	49	0	4	96	192	7
STR	50	0	1
SI_	50	0	1	96	96	6
STR	50	192	5
SI_	50	192	5	96	96	2
TAP	51	0	1
TAP	51	96	2
TAP	51	96	6
TAP	51	192	1
TAP	51	192	5
STR	52	0	7
SCL	52	0	7	96	192	4
STR	53	0	3
SCL	53	0	3	96	192	0
STR	54	0	6
SI_	54	0	6	96	96	1
STR	54	192	2
SI_	54	192	2	96	96	5
TAP	55	0	6
TAP	55	96	0
TAP	55	96	4
TAP	55	192	2
TAP	55	192	6
TAP	56	0	0
TAP	56	0	7
TAP	56	96	0
TAP	56	144	1
TAP	56	192	2
TAP	56	288	2
TAP	56	288	3
TAP	57	0	3
TAP	57	48	2
TAP	57	96	3
TAP	57	144	4
TAP	57	192	5
TAP	58	0	7
TAP	58	48	6
TAP	58	96	5
TAP	58	144	4
TAP	58	192	3
TAP	58	240	2
TAP	58	288	1
TAP	58	336	0
TAP	59	0	7
TAP	59	96	6
TAP	59	96	7
TAP	59	192	6
TAP	59	192	7
TAP	60	0	0
TAP	60	0	7
TAP	60	96	7
TAP	60	144	6
TAP	60	192	5
TAP	60	288	4
TAP	60	288	5
TAP	61	0	4
TAP	61	48	5
TAP	61	96	4
TAP	61	144	3
TAP	61	192	2
TAP	62	0	0
TAP	62	48	1
TAP	62	96	2
TAP	62	144	3
TAP	62	192	4
TAP	62	240	5
TAP	62	288	6
TAP	62	336	7
TAP	63	0	0
BRK	63	96	6
TAP	63	96	7
TAP	63	192	0
BRK	63	192	1

T_REC_TAP	249
T_REC_BRK	8
T_REC_XTP	0
T_REC_HLD	4
T_REC_XHO	0
T_REC_STR	10
T_REC_BST	0
T_REC_XST	0
T_REC_TTP	0
T_REC_THO	0
T_REC_SLD	10
T_REC_ALL	281
T_NUM_TAP	259
T_NUM_BRK	8
T_NUM_HLD	4
T_NUM_SLD	10
T_NUM_ALL	281
T_JUDGE_TAP	267
T_JUDGE_HLD	8
T_JUDGE_SLD	10
T_JUDGE_ALL	285
TTM_EACHPAIRS	65
TTM_SCR_TAP	129500
TTM_SCR_BRK	20800
TTM_SCR_HLD	4000
TTM_SCR_SLD	15000
TTM_SCR_ALL	169300
TTM_SCR_S	163450
TTM_SCR_SS	168500
TTM_RAT_ACV	10047

