VERSION	0.00.00	1.03.00
FES_MODE	0
BPM_DEF	171.000	171.000	171.000	171.000
MET_DEF	4	4
RESOLUTION	384
CLK_DEF	384
COMPATIBLE_CODE	MA2

BPM	0	0	171.000
MET	0	0	4	4

TAP	1	96	1
TAP	1	288	1
TAP	2	96	1
STR	2	288	1
SI_	2	288	1	96	96	6
TAP	5	0	5
TAP	5	96	7
TAP	5	192	2
TAP	5	288	0
TAP	6	0	0
TAP	6	0	7
TAP	6	96	1
TAP	6	96	6
TAP	6	192	0
TAP	6	192	7
TAP	7	0	1
TAP	7	96	6
TAP	7	192	1
TAP	7	288	6
TAP	8	0	2
TAP	8	0	5
TAP	8	96	1
TAP	8	96	6
TAP	8	192	0
TAP	8	192	7
TAP	9	0	4
TAP	9	96	6
TAP	9	192	3
TAP	9	288	1
TAP	10	0	4
TAP	10	0	5
TAP	10	96	2
TAP	10	96	3
TAP	10	192	1
TAP	10	192	6
TAP	11	0	2
TAP	11	96	5
TAP	11	192	2
TAP	11	288	5
HLD	12	0	2	96
HLD	12	0	5	96
TAP	12	192	1
TAP	12	192	6
HLD	13	0	1	144
TAP	13	192	6
TAP	14	0	6
TAP	14	192	2
TAP	14	192	5
TAP	15	0	1
TAP	15	96	6
TAP	15	192	2
TAP	15	192	7
TAP	16	0	0
TAP	16	0	5
TAP	16	192	2
TAP	16	192	5
TAP	17	0	1
TAP	17	0	7
TAP	17	96	1
TAP	17	96	7
TAP	17	192	1
TAP	17	288	0
TAP	18	0	7
TAP	18	96	6
TAP	18	192	5
HLD	18	336	1	144
HLD	18	336	6	144
TAP	20	0	6
TAP	20	48	6
TAP	20	192	1
TAP	20	240	1
TAP	20	336	0
TAP	21	192	6
TAP	21	288	5
TAP	22	0	1
TAP	22	96	2
TAP	22	192	6
TAP	22	288	5
TAP	23	0	1
TAP	23	96	2
TAP	23	192	6
TAP	23	288	7
TAP	24	0	1
TAP	24	96	0
HLD	24	192	1	192
HLD	24	192	6	192
HLD	25	192	2	96
TAP	25	288	0
HLD	26	0	5	96
TAP	26	96	7
HLD	26	192	2	96
TAP	26	288	0
HLD	27	0	5	96
TAP	27	96	7
TAP	27	192	4
TAP	27	192	5
TAP	28	0	2
TAP	28	0	3
TAP	28	192	2
TAP	28	192	7
TAP	28	288	0
TAP	28	288	5
TAP	29	0	1
TAP	29	0	6
TAP	29	288	2
TAP	30	96	2
TAP	30	192	1
TAP	30	288	0
TAP	31	0	7
TAP	31	96	6
HLD	31	192	0	192
TAP	31	192	6
TAP	32	0	4
TAP	32	192	1
TAP	32	192	6
TAP	32	288	2
TAP	32	288	5
TAP	33	0	1
HLD	33	0	6	480
TAP	33	192	1
TAP	34	0	1
TAP	34	192	0
TAP	34	192	7
TAP	34	288	0
TAP	34	288	7
TAP	35	0	0
TAP	35	0	7
TAP	35	192	1
HLD	35	192	7	288
TAP	36	0	3
TAP	36	192	6
TAP	36	192	7
TAP	36	288	0
TAP	36	288	1
TAP	37	0	6
TAP	37	0	7
TAP	37	192	6
TAP	38	0	6
TAP	38	192	1
TAP	38	192	6
TAP	38	288	1
TAP	38	288	6
BRK	39	0	0
BRK	39	0	7
TAP	39	288	1
TAP	40	96	1
TAP	40	288	1
STR	41	96	1
SI_	41	96	1	96	96	6
TAP	43	192	5
TAP	43	288	7
TAP	44	0	2
TAP	44	96	0
TAP	44	192	0
TAP	44	192	7
TAP	44	288	1
TAP	44	288	6
TAP	45	0	0
TAP	45	0	7
TAP	45	192	1
TAP	45	288	6
TAP	46	0	1
TAP	46	96	6
TAP	46	192	2
TAP	46	192	5
TAP	46	288	1
TAP	46	288	6
STR	47	0	0
SCR	47	0	0	96	96	3
STR	47	0	7
SCL	47	0	7	96	96	4
HLD	48	0	0	192
TAP	48	0	6
TAP	48	192	4
TAP	49	0	1
TAP	49	0	6
TAP	49	96	2
TAP	49	96	5
TAP	49	192	1
HLD	49	192	6	480
TAP	50	0	1
TAP	50	192	1
TAP	51	0	0
TAP	51	0	7
TAP	51	96	0
TAP	51	96	7
TAP	51	192	0
TAP	51	192	7
TAP	51	288	6
HLD	52	0	7	192
TAP	52	96	1
TAP	52	288	3
TAP	53	0	6
TAP	53	0	7
TAP	53	96	0
TAP	53	96	1
TAP	53	192	6
TAP	53	192	7
TAP	54	0	6
TAP	54	96	5
TAP	54	192	4
TAP	54	288	5
TAP	55	0	1
TAP	55	0	6
TAP	55	96	1
TAP	55	96	6
TAP	55	192	0
TAP	55	192	7
HLD	56	0	7	96
TAP	56	96	6
HLD	56	192	0	96
TAP	56	288	1
HLD	57	0	0	96
HLD	57	0	7	96
HLD	57	192	1	528
TAP	57	192	6
TAP	58	0	6
TAP	58	192	6
TAP	59	0	7
TAP	59	96	0
TAP	59	192	7
TAP	59	288	6
TAP	60	0	5
TAP	60	0	6
TAP	60	192	1
TAP	60	192	2
TAP	61	0	6
TAP	61	0	7
TAP	61	96	0
TAP	61	96	1
TAP	61	192	6
HLD	61	192	7	480
TAP	62	0	6
TAP	62	192	6
TAP	62	288	0
TAP	63	0	2
TAP	63	0	5
TAP	63	96	2
TAP	63	96	5
BRK	63	192	0
BRK	63	192	7

T_REC_TAP	206
T_REC_BRK	4
T_REC_XTP	0
T_REC_HLD	23
T_REC_XHO	0
T_REC_STR	4
T_REC_BST	0
T_REC_XST	0
T_REC_TTP	0
T_REC_THO	0
T_REC_SLD	4
T_REC_ALL	241
T_NUM_TAP	210
T_NUM_BRK	4
T_NUM_HLD	23
T_NUM_SLD	4
T_NUM_ALL	241
T_JUDGE_TAP	214
T_JUDGE_HLD	96
T_JUDGE_SLD	4
T_JUDGE_ALL	314
TTM_EACHPAIRS	67
TTM_SCR_TAP	105000
TTM_SCR_BRK	10400
TTM_SCR_HLD	23000
TTM_SCR_SLD	6000
TTM_SCR_ALL	144400
TTM_SCR_S	139700
TTM_SCR_SS	144000
TTM_RAT_ACV	10027

