VERSION	0.00.00	1.03.00
FES_MODE	0
BPM_DEF	171.000	171.000	171.000	171.000
MET_DEF	4	4
RESOLUTION	384
CLK_DEF	384
COMPATIBLE_CODE	MA2

BPM	0	0	171.000
MET	0	0	4	4

TAP	1	96	0
TAP	1	288	0
TAP	2	96	7
TAP	2	288	7
TAP	3	96	0
TAP	3	288	0
TAP	4	0	7
TAP	4	96	7
TAP	4	192	7
TAP	4	288	7
TAP	5	0	6
TAP	5	192	6
TAP	6	0	5
TAP	6	96	4
TAP	6	192	3
TAP	7	0	2
TAP	7	96	3
TAP	7	192	4
TAP	7	288	5
TAP	8	0	4
TAP	8	96	3
TAP	8	192	2
TAP	9	0	1
TAP	9	192	1
TAP	10	0	2
TAP	10	96	3
TAP	10	192	4
TAP	11	0	5
TAP	11	96	4
TAP	11	192	3
TAP	11	288	2
TAP	12	0	3
TAP	12	96	4
TAP	12	192	5
HLD	13	0	1	96
HLD	13	0	6	96
TAP	13	288	6
TAP	14	96	6
TAP	14	288	6
TAP	15	0	7
TAP	15	96	7
TAP	15	288	1
TAP	16	96	1
TAP	16	288	1
TAP	17	0	0
TAP	17	96	0
TAP	17	192	7
TAP	18	0	6
STR	18	192	5
SI_	18	192	5	96	192	0
TAP	19	288	7
TAP	20	96	0
TAP	20	192	1
TAP	20	288	1
TAP	21	0	1
TAP	21	288	3
TAP	22	96	3
TAP	22	288	2
TAP	23	96	2
TAP	23	288	1
TAP	24	96	1
TAP	24	192	0
TAP	24	336	0
TAP	25	288	4
TAP	26	96	4
TAP	26	288	5
TAP	27	96	5
TAP	27	192	6
TAP	28	0	6
TAP	28	192	7
TAP	28	288	7
TAP	29	0	7
TAP	31	192	7
TAP	31	288	0
TAP	32	0	1
STR	32	96	2
SI_	32	96	2	96	192	5
TAP	33	192	5
TAP	33	288	5
TAP	34	0	6
TAP	34	96	6
TAP	34	192	0
TAP	34	192	7
TAP	34	288	0
TAP	34	288	7
TAP	35	0	0
TAP	35	0	7
TAP	35	192	0
TAP	35	288	7
TAP	36	0	6
STR	36	96	5
SI_	36	96	5	96	192	2
TAP	37	192	2
TAP	37	288	2
TAP	38	0	1
TAP	38	96	1
TAP	38	192	0
TAP	38	192	7
BRK	38	288	1
BRK	38	288	6
TAP	39	0	0
TAP	39	0	7
HLD	41	192	3	192
HLD	41	192	4	192
TAP	43	192	6
TAP	44	0	6
TAP	44	192	5
TAP	44	288	4
TAP	45	0	3
TAP	45	192	2
TAP	45	288	3
TAP	46	0	4
TAP	46	96	5
TAP	46	192	4
TAP	46	288	3
TAP	47	0	2
TAP	47	192	1
TAP	48	0	7
TAP	48	96	0
TAP	48	192	1
STR	48	288	2
SI_	48	288	2	96	192	5
TAP	50	0	5
TAP	50	96	5
TAP	50	192	6
TAP	50	288	6
TAP	51	0	0
TAP	51	0	7
TAP	51	96	0
TAP	51	96	7
TAP	51	192	0
TAP	51	192	7
TAP	52	0	0
TAP	52	96	7
TAP	52	192	6
STR	52	288	5
SI_	52	288	5	96	192	2
TAP	54	0	2
TAP	54	96	2
TAP	54	192	1
TAP	54	288	1
TAP	55	0	0
TAP	55	0	7
TAP	55	96	1
TAP	55	96	6
TAP	55	192	0
TAP	55	192	7
TAP	56	0	7
TAP	56	96	0
TAP	56	192	1
STR	56	288	2
SI_	56	288	2	96	192	5
TAP	58	0	5
TAP	58	96	6
TAP	58	192	7
TAP	58	288	0
TAP	59	0	1
TAP	59	0	7
TAP	59	96	1
TAP	59	96	7
TAP	59	192	1
TAP	59	192	7
TAP	60	0	0
TAP	60	96	7
TAP	60	192	6
STR	60	288	5
SI_	60	288	5	96	192	2
TAP	62	0	2
TAP	62	96	1
TAP	62	192	0
TAP	62	288	7
TAP	63	0	0
TAP	63	0	6
TAP	63	96	1
BRK	63	96	7
BRK	63	192	0
TAP	63	192	6

T_REC_TAP	155
T_REC_BRK	4
T_REC_XTP	0
T_REC_HLD	4
T_REC_XHO	0
T_REC_STR	7
T_REC_BST	0
T_REC_XST	0
T_REC_TTP	0
T_REC_THO	0
T_REC_SLD	7
T_REC_ALL	177
T_NUM_TAP	162
T_NUM_BRK	4
T_NUM_HLD	4
T_NUM_SLD	7
T_NUM_ALL	177
T_JUDGE_TAP	166
T_JUDGE_HLD	12
T_JUDGE_SLD	7
T_JUDGE_ALL	185
TTM_EACHPAIRS	20
TTM_SCR_TAP	81000
TTM_SCR_BRK	10400
TTM_SCR_HLD	4000
TTM_SCR_SLD	10500
TTM_SCR_ALL	105900
TTM_SCR_S	102350
TTM_SCR_SS	105500
TTM_RAT_ACV	10037

