VERSION	0.00.00	1.03.00
FES_MODE	0
BPM_DEF	128.000	128.000	128.000	128.000
MET_DEF	4	4
RESOLUTION	384
CLK_DEF	384
COMPATIBLE_CODE	MA2

BPM	0	0	128.000
MET	0	0	4	4

TAP	2	0	2
TAP	2	48	2
TAP	2	96	2
TAP	2	168	7
TAP	2	216	0
TAP	2	240	7
TAP	2	288	1
TAP	3	0	1
TAP	3	48	1
TAP	3	96	1
TAP	3	168	7
TAP	3	216	0
TAP	3	240	7
TAP	3	288	2
TAP	4	0	5
TAP	4	48	5
TAP	4	96	5
TAP	4	168	0
TAP	4	216	7
TAP	4	240	0
TAP	4	288	6
TAP	5	0	6
TAP	5	48	6
TAP	5	96	6
TAP	5	168	0
TAP	5	216	7
TAP	5	240	0
TAP	5	288	5
TAP	6	0	2
TAP	6	48	0
TAP	6	96	0
TAP	6	96	1
TAP	6	168	0
TAP	6	216	6
TAP	6	240	0
TAP	6	288	0
TAP	6	288	7
TAP	7	0	5
TAP	7	48	7
TAP	7	96	6
TAP	7	96	7
TAP	7	168	7
TAP	7	216	1
TAP	7	240	7
TAP	7	288	0
TAP	7	288	7
TAP	8	0	2
TAP	8	48	1
TAP	8	96	3
TAP	8	96	4
TAP	8	168	1
TAP	8	216	3
TAP	8	240	1
TAP	8	288	2
TAP	8	288	5
TAP	9	0	5
TAP	9	48	6
TAP	9	96	3
TAP	9	96	4
TAP	9	168	6
TAP	9	216	4
TAP	9	240	6
TAP	9	288	2
TAP	9	288	5
TAP	10	0	0
TAP	10	48	0
TAP	10	72	1
TAP	10	120	1
BRK	10	144	0
TAP	10	192	3
TAP	10	240	3
TAP	10	264	4
TAP	10	312	4
BRK	10	336	3
TAP	11	0	1
TAP	11	48	1
TAP	11	72	2
TAP	11	120	2
BRK	11	144	1
TAP	11	192	6
TAP	11	240	6
TAP	11	264	5
TAP	11	312	5
BRK	11	336	6
TAP	12	0	4
TAP	12	48	4
TAP	12	72	5
TAP	12	120	5
BRK	12	144	4
TAP	12	192	3
TAP	12	240	3
TAP	12	264	2
TAP	12	312	2
BRK	12	336	3
TAP	13	0	7
TAP	13	72	0
TAP	13	72	6
TAP	13	144	5
TAP	13	144	7
TAP	13	264	7
BRK	13	288	0
HLD	14	0	0	96
HLD	14	96	4	96
HLD	14	192	2	192
TAP	14	288	1
HLD	15	0	6	96
HLD	15	96	7	96
TAP	15	192	1
TAP	15	264	7
TAP	15	312	1
TAP	15	312	6
HLD	16	0	4	96
HLD	16	96	0	96
HLD	16	192	6	192
TAP	16	288	5
HLD	17	0	2	96
HLD	17	96	1	96
TAP	17	144	2
TAP	17	192	3
TAP	17	240	7
TAP	17	264	6
TAP	17	312	0
TAP	17	312	7
HLD	18	0	7	96
HLD	18	96	3	96
HLD	18	192	5	192
TAP	18	288	6
HLD	19	0	1	96
HLD	19	96	0	96
TAP	19	192	6
TAP	19	264	0
TAP	19	312	1
TAP	19	312	6
TAP	20	0	5
TAP	20	96	6
TAP	20	144	0
TAP	20	144	7
TAP	20	192	6
TAP	20	216	5
TAP	20	264	6
TAP	20	336	0
TAP	21	0	1
TAP	21	0	5
TAP	21	48	3
BRK	21	72	7
TAP	21	120	4
BRK	21	144	0
STR	21	288	3
SI_	21	288	3	96	192	7
TAP	22	96	0
TAP	22	168	0
STR	22	288	1
SI_	22	288	1	96	192	5
TAP	23	96	6
TAP	23	168	6
HLD	23	288	5	96
HLD	24	0	4	192
TAP	24	96	3
STR	24	192	2
SCL	24	192	2	96	48	7
STR	24	288	4
SCR	24	288	4	96	192	7
TAP	25	288	2
TAP	25	336	1
HLD	26	0	0	192
STR	26	0	4
SCL	26	0	4	96	192	1
TAP	26	288	7
TAP	26	336	6
STR	27	0	1
SCL	27	0	1	96	192	6
HLD	27	0	5	192
TAP	27	288	4
HLD	28	0	1	96
HLD	28	0	7	192
HLD	28	192	0	96
HLD	28	288	6	288
HLD	29	0	2	192
STR	29	288	6
SI_	29	288	6	96	288	1
STR	30	288	7
SI_	30	288	7	96	288	4
STR	31	288	1
SI_	31	288	1	96	96	4
STR	32	96	3
SI_	32	96	3	96	96	6
STR	32	288	7
SCR	32	288	7	96	192	2
TAP	33	288	5
TAP	33	336	5
HLD	34	0	3	384
TAP	34	96	2
TAP	34	168	2
TAP	34	288	4
TAP	34	336	5
HLD	35	0	6	288
TAP	35	96	7
TAP	35	168	7
TAP	35	288	0
HLD	36	0	1	192
TAP	36	96	2
TAP	36	144	3
HLD	36	192	7	144
TAP	36	288	0
TAP	36	336	0
TAP	37	0	1
TAP	37	0	2
TAP	37	72	3
TAP	37	72	4
TAP	37	144	5
TAP	37	144	6
TAP	37	240	1
TAP	37	240	7
TAP	37	288	0
HLD	37	288	2	96
TAP	37	336	1
TAP	38	0	0
TAP	38	48	7
TAP	38	96	0
TAP	38	96	6
TAP	38	168	1
TAP	38	168	7
TAP	38	240	0
TAP	38	240	6
HLD	38	288	5	96
TAP	38	288	7
TAP	38	336	6
TAP	39	0	7
TAP	39	48	0
TAP	39	96	1
TAP	39	96	7
TAP	39	168	0
TAP	39	168	6
TAP	39	240	2
TAP	39	240	3
HLD	39	288	3	96
TAP	39	288	4
TAP	39	336	5
TAP	40	0	6
TAP	40	48	5
TAP	40	96	4
TAP	40	96	6
TAP	40	168	3
TAP	40	168	5
TAP	40	240	4
TAP	40	240	5
TAP	40	288	3
HLD	40	288	4	96
TAP	40	336	2
TAP	41	0	1
TAP	41	48	2
TAP	41	96	1
TAP	41	96	3
TAP	41	168	2
TAP	41	168	4
TAP	41	240	7
STR	41	288	6
SI_	41	288	6	96	96	2
TAP	41	336	5
TAP	42	0	1
TAP	42	48	0
TAP	42	96	1
TAP	42	168	2
TAP	42	240	0
STR	42	288	1
SI_	42	288	1	96	96	5
TAP	42	336	2
TAP	43	0	6
TAP	43	48	7
TAP	43	96	6
TAP	43	168	5
TAP	43	240	7
STR	43	288	0
SI_	43	288	0	96	48	3
TAP	43	336	0
STR	44	0	5
SI_	44	0	5	96	48	2
TAP	44	240	3
STR	44	288	4
SI_	44	288	4	96	48	7
TAP	44	336	4
STR	45	0	1
SI_	45	0	1	96	48	6
BRK	45	240	1
TAP	45	240	7
BRK	45	288	0
HLD	45	288	2	96
BRK	45	336	1
TAP	46	0	0
TAP	46	48	7
TAP	46	96	0
TAP	46	96	6
TAP	46	144	1
TAP	46	168	7
TAP	46	216	6
TAP	46	240	0
HLD	46	288	5	96
TAP	46	288	7
BRK	46	336	6
TAP	47	0	7
TAP	47	48	0
TAP	47	96	1
TAP	47	96	7
TAP	47	144	6
TAP	47	168	0
TAP	47	216	2
TAP	47	240	3
HLD	47	288	3	96
TAP	47	288	4
BRK	47	336	5
TAP	48	0	6
TAP	48	48	5
TAP	48	96	4
TAP	48	96	6
TAP	48	144	3
TAP	48	168	5
TAP	48	216	5
TAP	48	240	4
TAP	48	288	3
HLD	48	288	4	96
BRK	48	336	2
TAP	49	0	1
TAP	49	48	2
TAP	49	96	1
TAP	49	96	3
TAP	49	144	4
TAP	49	168	2
STR	49	240	0
SCL	49	240	0	96	144	5
TAP	49	240	1
TAP	49	288	2
HLD	50	0	4	192
STR	50	240	4
SCL	50	240	4	96	144	1
TAP	50	240	5
TAP	50	288	6
HLD	51	0	0	192
TAP	51	240	0
STR	51	240	7
SI_	51	240	7	96	144	3
TAP	51	288	1
STR	52	0	5
SI_	52	0	5	96	192	1
TAP	53	0	1
TAP	53	24	0
TAP	53	72	4
TAP	53	96	5
TAP	53	144	1
TAP	53	168	0
TAP	53	216	7
TAP	53	240	6
TAP	53	288	0
TAP	53	288	7

T_REC_TAP	258
T_REC_BRK	15
T_REC_XTP	0
T_REC_HLD	38
T_REC_XHO	0
T_REC_STR	21
T_REC_BST	0
T_REC_XST	0
T_REC_TTP	0
T_REC_THO	0
T_REC_SLD	21
T_REC_ALL	353
T_NUM_TAP	279
T_NUM_BRK	15
T_NUM_HLD	38
T_NUM_SLD	21
T_NUM_ALL	353
T_JUDGE_TAP	294
T_JUDGE_HLD	113
T_JUDGE_SLD	21
T_JUDGE_ALL	428
TTM_EACHPAIRS	50
TTM_SCR_TAP	139500
TTM_SCR_BRK	39000
TTM_SCR_HLD	38000
TTM_SCR_SLD	31500
TTM_SCR_ALL	248000
TTM_SCR_S	239150
TTM_SCR_SS	246500
TTM_RAT_ACV	10060

