VERSION	0.00.00	1.03.00
FES_MODE	0
BPM_DEF	128.000	128.000	128.000	128.000
MET_DEF	4	4
RESOLUTION	384
CLK_DEF	384
COMPATIBLE_CODE	MA2

BPM	0	0	128.000
MET	0	0	4	4

TAP	2	0	2
TAP	2	48	2
TAP	2	96	2
TAP	2	168	3
TAP	3	0	5
TAP	3	48	5
TAP	3	96	5
TAP	3	168	4
TAP	4	0	2
TAP	4	48	2
TAP	4	96	2
TAP	4	168	3
TAP	4	288	4
TAP	4	336	4
TAP	5	0	5
TAP	5	48	5
TAP	5	96	5
TAP	5	168	4
TAP	5	288	3
TAP	5	336	3
TAP	6	0	2
TAP	6	48	3
TAP	6	96	2
TAP	6	168	2
TAP	6	240	3
TAP	6	288	4
TAP	6	336	3
TAP	7	0	5
TAP	7	48	4
TAP	7	96	5
TAP	7	168	5
TAP	7	240	4
TAP	7	288	3
TAP	7	336	4
TAP	8	0	2
TAP	8	48	3
TAP	8	96	2
TAP	8	144	3
TAP	8	168	2
TAP	8	240	3
TAP	8	288	4
TAP	8	336	3
TAP	9	0	5
TAP	9	48	4
TAP	9	96	5
TAP	9	144	4
TAP	9	168	5
TAP	9	240	4
TAP	9	288	3
TAP	9	336	4
TAP	10	0	2
TAP	10	48	2
TAP	10	72	4
TAP	10	120	4
TAP	10	192	1
TAP	10	240	1
TAP	10	264	3
TAP	10	312	3
TAP	11	0	0
TAP	11	48	0
TAP	11	72	2
TAP	11	120	2
TAP	11	192	7
TAP	11	240	7
TAP	11	264	1
TAP	11	312	1
TAP	12	0	6
TAP	12	48	6
TAP	12	72	0
TAP	12	120	0
TAP	12	192	5
TAP	12	240	5
TAP	12	264	7
TAP	12	312	7
TAP	13	0	4
TAP	13	72	4
STR	13	144	4
SI_	13	144	4	96	48	7
HLD	14	0	0	96
HLD	14	96	1	96
HLD	14	192	2	96
TAP	14	288	3
TAP	14	336	7
HLD	15	0	3	96
HLD	15	96	4	96
HLD	15	192	5	96
TAP	15	288	6
TAP	15	336	2
HLD	16	0	7	96
HLD	16	96	6	96
HLD	16	192	5	96
TAP	16	288	4
TAP	16	336	0
HLD	17	0	4	96
HLD	17	96	3	96
HLD	17	192	2	96
TAP	17	288	1
TAP	17	336	5
HLD	18	0	1	288
TAP	18	96	2
TAP	18	192	3
TAP	18	288	4
TAP	18	336	0
HLD	19	0	4	288
TAP	19	96	3
TAP	19	192	2
TAP	19	288	1
TAP	19	336	5
HLD	20	0	6	288
TAP	20	96	5
TAP	20	192	4
TAP	20	288	3
TAP	20	336	7
TAP	21	0	2
TAP	21	72	2
TAP	21	144	2
TAP	21	216	2
TAP	21	288	2
TAP	21	336	1
HLD	22	0	0	288
TAP	22	288	6
TAP	22	336	5
HLD	23	0	4	288
TAP	23	288	3
TAP	23	336	2
HLD	24	0	1	96
HLD	24	96	0	96
HLD	24	192	7	96
HLD	24	288	6	96
STR	25	0	5
SCL	25	0	5	96	96	2
TAP	25	288	1
TAP	25	336	2
HLD	26	0	3	288
TAP	26	288	6
TAP	26	336	5
HLD	27	0	4	288
TAP	27	288	6
TAP	27	336	7
HLD	28	0	0	96
HLD	28	96	6	96
HLD	28	192	2	96
HLD	28	288	4	96
HLD	29	0	3	192
HLD	30	0	7	288
TAP	30	96	5
TAP	30	168	5
HLD	31	0	3	288
TAP	31	96	1
TAP	31	168	1
TAP	32	0	0
TAP	32	96	1
STR	32	192	2
SI_	32	192	2	96	96	5
STR	33	0	6
SI_	33	0	6	96	96	1
HLD	33	288	6	384
STR	34	0	5
SCL	34	0	5	96	96	2
HLD	34	288	1	384
STR	35	0	2
SCR	35	0	2	96	96	5
HLD	35	288	6	192
TAP	36	0	7
HLD	36	96	2	192
TAP	36	192	3
HLD	36	288	5	240
TAP	37	0	4
TAP	37	72	4
BRK	37	144	4
TAP	37	240	6
TAP	37	288	7
HLD	37	337	0	215
TAP	38	96	1
TAP	38	168	1
TAP	38	240	1
TAP	38	288	0
HLD	38	336	7	216
TAP	39	96	6
TAP	39	168	6
TAP	39	240	6
TAP	39	288	5
HLD	39	336	4	216
TAP	40	96	2
TAP	40	168	2
TAP	40	240	1
TAP	40	288	2
HLD	40	336	3	216
TAP	41	96	4
TAP	41	168	4
TAP	41	240	5
TAP	41	288	4
HLD	41	336	5	216
TAP	42	96	3
TAP	42	168	3
TAP	42	240	2
TAP	42	288	3
HLD	42	336	2	216
TAP	43	96	4
TAP	43	168	4
TAP	43	240	3
TAP	43	288	4
HLD	43	336	5	216
TAP	44	96	3
TAP	44	168	3
TAP	44	240	4
TAP	44	288	3
HLD	44	336	2	216
TAP	45	96	1
TAP	45	168	1
TAP	45	240	6
TAP	45	288	7
TAP	45	336	0
TAP	46	0	1
TAP	46	96	0
TAP	46	168	0
TAP	46	168	1
TAP	46	240	1
TAP	46	288	0
TAP	46	336	7
TAP	47	0	6
TAP	47	96	7
TAP	47	168	6
TAP	47	168	7
TAP	47	240	7
TAP	47	288	6
TAP	47	336	5
TAP	48	0	4
TAP	48	96	5
TAP	48	168	4
TAP	48	168	5
TAP	48	240	0
TAP	48	288	1
TAP	48	336	2
TAP	49	0	3
TAP	49	96	2
TAP	49	168	2
TAP	49	168	3
TAP	49	240	5
TAP	49	288	4
TAP	49	336	3
TAP	50	0	2
TAP	50	96	4
BRK	50	168	3
BRK	50	168	4
TAP	50	240	5
TAP	50	288	4
TAP	50	336	3
TAP	51	0	2
TAP	51	96	4
BRK	51	168	3
BRK	51	168	4
TAP	51	240	5
TAP	51	288	4
TAP	51	336	3
TAP	52	0	2
TAP	52	96	4
BRK	52	168	3
BRK	52	168	4
TAP	52	240	5
TAP	52	288	4
TAP	52	336	3
TAP	53	0	2

T_REC_TAP	201
T_REC_BRK	7
T_REC_XTP	0
T_REC_HLD	43
T_REC_XHO	0
T_REC_STR	6
T_REC_BST	0
T_REC_XST	0
T_REC_TTP	0
T_REC_THO	0
T_REC_SLD	6
T_REC_ALL	263
T_NUM_TAP	207
T_NUM_BRK	7
T_NUM_HLD	43
T_NUM_SLD	6
T_NUM_ALL	263
T_JUDGE_TAP	214
T_JUDGE_HLD	167
T_JUDGE_SLD	6
T_JUDGE_ALL	387
TTM_EACHPAIRS	7
TTM_SCR_TAP	103500
TTM_SCR_BRK	18200
TTM_SCR_HLD	43000
TTM_SCR_SLD	9000
TTM_SCR_ALL	173700
TTM_SCR_S	167850
TTM_SCR_SS	173000
TTM_RAT_ACV	10040

