VERSION	0.00.00	1.03.00
FES_MODE	0
BPM_DEF	128.000	128.000	128.000	128.000
MET_DEF	4	4
RESOLUTION	384
CLK_DEF	384
COMPATIBLE_CODE	MA2

BPM	0	0	128.000
MET	0	0	4	4

TAP	2	0	5
TAP	3	0	5
TAP	4	0	5
TAP	5	0	5
TAP	6	0	0
TAP	6	96	0
TAP	6	192	1
TAP	6	288	1
TAP	7	0	2
TAP	7	96	2
TAP	7	192	3
TAP	7	288	3
TAP	8	0	4
TAP	8	96	4
TAP	8	192	5
TAP	8	288	5
TAP	9	0	6
TAP	9	96	6
TAP	9	192	7
TAP	9	288	7
TAP	10	0	0
TAP	10	96	0
TAP	10	96	7
TAP	10	192	7
TAP	10	288	6
TAP	10	288	7
TAP	11	0	6
TAP	11	96	5
TAP	11	96	6
TAP	11	192	5
TAP	11	288	4
TAP	11	288	5
TAP	12	0	4
TAP	12	96	3
TAP	12	96	4
TAP	12	192	3
TAP	12	288	2
TAP	12	288	3
STR	13	0	1
SI_	13	0	1	96	192	6
TAP	14	96	7
TAP	14	192	6
TAP	14	288	5
TAP	15	0	4
TAP	15	96	3
TAP	15	192	2
TAP	15	288	1
TAP	16	96	0
TAP	16	192	1
TAP	16	288	2
TAP	17	0	3
TAP	17	96	4
TAP	17	192	5
BRK	17	288	5
TAP	18	96	7
TAP	18	192	6
TAP	18	288	5
TAP	19	0	4
TAP	19	96	5
TAP	19	192	6
TAP	19	288	6
STR	20	0	1
SCL	20	0	1	96	192	6
STR	22	0	2
SI_	22	0	2	96	192	7
STR	23	0	5
SI_	23	0	5	96	192	0
STR	24	0	2
SCL	24	0	2	96	192	7
STR	25	0	5
SCR	25	0	5	96	192	0
HLD	26	0	6	288
TAP	26	96	5
TAP	26	288	5
HLD	27	0	2	288
TAP	27	96	1
TAP	27	288	1
HLD	28	0	6	288
TAP	28	96	7
TAP	28	288	7
HLD	29	0	1	288
TAP	29	96	0
TAP	29	288	0
TAP	30	0	2
TAP	30	0	5
TAP	30	96	4
TAP	30	192	3
TAP	30	288	2
TAP	31	0	3
TAP	31	96	4
TAP	31	192	5
TAP	31	288	6
TAP	32	0	1
TAP	32	0	6
TAP	32	96	0
TAP	32	192	7
TAP	32	288	6
TAP	33	0	7
TAP	33	96	0
TAP	33	192	1
TAP	33	288	2
HLD	34	1	5	287
TAP	34	96	4
TAP	34	192	3
TAP	34	288	2
HLD	35	0	1	288
TAP	35	96	2
TAP	35	192	3
TAP	35	288	4
TAP	36	0	0
TAP	36	96	2
TAP	36	192	6
TAP	36	288	5
TAP	37	0	1
TAP	37	0	6
TAP	37	72	1
TAP	37	72	6
BRK	37	144	1
BRK	37	144	6
TAP	37	288	0
TAP	37	288	7
TAP	38	0	7
TAP	38	96	0
TAP	38	96	7
TAP	38	192	1
TAP	38	288	2
TAP	39	0	1
TAP	39	96	0
TAP	39	96	7
TAP	39	192	6
TAP	39	288	5
TAP	40	0	6
TAP	40	96	0
TAP	40	96	7
TAP	40	192	1
TAP	40	288	2
TAP	41	0	3
TAP	41	96	3
TAP	41	96	4
TAP	41	192	4
TAP	41	288	5
TAP	42	0	4
TAP	42	96	3
TAP	42	192	2
BRK	42	288	2
TAP	43	0	3
TAP	43	96	4
TAP	43	192	5
BRK	43	288	5
TAP	44	0	4
TAP	44	96	3
TAP	44	192	2
BRK	44	288	2
TAP	45	0	1
TAP	45	96	6
TAP	45	192	7
TAP	45	288	0
TAP	45	288	7
TAP	46	0	0
TAP	46	96	0
TAP	46	96	7
TAP	46	192	6
TAP	46	288	5
TAP	47	0	6
TAP	47	96	0
TAP	47	96	7
TAP	47	192	1
TAP	47	288	2
TAP	48	0	1
TAP	48	96	0
TAP	48	96	7
TAP	48	192	6
TAP	48	288	5
TAP	49	0	4
TAP	49	96	3
TAP	49	96	4
TAP	49	192	3
TAP	49	288	2
BRK	50	96	4
BRK	50	96	5
STR	50	192	1
SI_	50	192	1	96	96	4
BRK	51	96	2
BRK	51	96	3
STR	51	192	6
SI_	51	192	6	96	96	3
TAP	52	96	6
TAP	52	192	5
STR	52	288	6
SI_	52	288	6	96	192	1

T_REC_TAP	156
T_REC_BRK	10
T_REC_XTP	0
T_REC_HLD	6
T_REC_XHO	0
T_REC_STR	9
T_REC_BST	0
T_REC_XST	0
T_REC_TTP	0
T_REC_THO	0
T_REC_SLD	9
T_REC_ALL	190
T_NUM_TAP	165
T_NUM_BRK	10
T_NUM_HLD	6
T_NUM_SLD	9
T_NUM_ALL	190
T_JUDGE_TAP	175
T_JUDGE_HLD	36
T_JUDGE_SLD	9
T_JUDGE_ALL	220
TTM_EACHPAIRS	23
TTM_SCR_TAP	82500
TTM_SCR_BRK	26000
TTM_SCR_HLD	6000
TTM_SCR_SLD	13500
TTM_SCR_ALL	128000
TTM_SCR_S	123200
TTM_SCR_SS	127000
TTM_RAT_ACV	10078

