VERSION	0.00.00	1.03.00
FES_MODE	0
BPM_DEF	128.000	128.000	128.000	128.000
MET_DEF	4	4
RESOLUTION	384
CLK_DEF	384
COMPATIBLE_CODE	MA2

BPM	0	0	128.000
MET	0	0	4	4

TAP	2	0	2
TAP	3	0	2
TAP	4	0	2
TAP	5	0	2
TAP	6	0	0
TAP	6	192	1
TAP	7	0	2
TAP	7	192	3
TAP	8	0	4
TAP	8	192	5
TAP	9	0	6
TAP	9	192	7
TAP	10	0	0
TAP	10	96	0
TAP	10	192	0
TAP	11	0	7
TAP	11	96	7
TAP	11	192	7
TAP	12	0	0
TAP	12	96	0
TAP	12	192	0
STR	13	0	3
SI_	13	0	3	96	192	6
TAP	14	96	7
TAP	14	192	7
TAP	14	288	7
TAP	15	0	6
TAP	15	96	5
TAP	15	192	4
TAP	16	96	2
TAP	16	192	2
TAP	16	288	2
TAP	17	0	3
TAP	17	96	4
TAP	17	192	5
TAP	18	96	7
TAP	18	192	7
TAP	18	288	7
TAP	19	0	0
TAP	19	96	1
TAP	19	192	2
TAP	20	0	0
TAP	20	192	7
BRK	21	0	7
STR	22	0	1
SI_	22	0	1	96	192	4
STR	24	0	3
SI_	24	0	3	96	192	6
TAP	26	0	6
TAP	26	0	7
TAP	27	0	0
TAP	27	0	1
TAP	28	0	2
TAP	28	192	3
TAP	29	0	5
TAP	29	192	4
HLD	30	0	6	192
HLD	31	0	4	192
HLD	32	0	2	192
STR	33	0	0
SI_	33	0	0	96	192	3
HLD	35	0	4	288
TAP	36	96	5
TAP	36	192	6
TAP	36	288	7
TAP	37	0	0
BRK	37	288	0
TAP	38	96	6
TAP	38	192	7
TAP	38	288	1
TAP	39	96	1
TAP	39	192	0
TAP	39	288	6
TAP	40	96	6
TAP	40	192	7
TAP	40	288	1
TAP	41	96	2
TAP	41	192	3
TAP	41	288	5
TAP	42	96	5
TAP	42	192	4
TAP	42	288	2
TAP	43	96	2
TAP	43	192	3
TAP	43	288	5
STR	44	96	6
SI_	44	96	6	96	192	1
TAP	46	96	1
TAP	46	192	7
TAP	46	288	6
TAP	47	96	6
TAP	47	192	0
TAP	47	288	1
TAP	48	96	1
TAP	48	192	7
TAP	48	288	6
TAP	49	96	5
TAP	49	192	3
TAP	49	288	2
HLD	50	96	1	192
HLD	51	96	1	192
TAP	52	96	6
TAP	52	192	5
TAP	52	288	5
BRK	53	0	5

T_REC_TAP	86
T_REC_BRK	3
T_REC_XTP	0
T_REC_HLD	6
T_REC_XHO	0
T_REC_STR	5
T_REC_BST	0
T_REC_XST	0
T_REC_TTP	0
T_REC_THO	0
T_REC_SLD	5
T_REC_ALL	105
T_NUM_TAP	91
T_NUM_BRK	3
T_NUM_HLD	6
T_NUM_SLD	5
T_NUM_ALL	105
T_JUDGE_TAP	94
T_JUDGE_HLD	26
T_JUDGE_SLD	5
T_JUDGE_ALL	125
TTM_EACHPAIRS	2
TTM_SCR_TAP	45500
TTM_SCR_BRK	7800
TTM_SCR_HLD	6000
TTM_SCR_SLD	7500
TTM_SCR_ALL	66800
TTM_SCR_S	64550
TTM_SCR_SS	66500
TTM_RAT_ACV	10045

