VERSION	0.00.00	1.03.00
FES_MODE	0
BPM_DEF	132.000	132.000	132.000	132.000
MET_DEF	4	4
RESOLUTION	384
CLK_DEF	384
COMPATIBLE_CODE	MA2

BPM	0	0	132.000
MET	0	0	4	4

TAP	2	48	1
TAP	2	144	2
TAP	2	240	3
TAP	2	336	4
TAP	3	48	6
TAP	3	144	5
TAP	3	240	4
TAP	3	336	3
TAP	4	48	0
TAP	4	96	1
TAP	4	144	2
TAP	4	240	1
TAP	4	336	0
TAP	5	48	7
TAP	5	96	6
TAP	5	144	5
TAP	5	240	6
TAP	5	336	5
TAP	6	48	0
TAP	6	96	1
TAP	6	144	2
TAP	6	240	7
TAP	6	336	6
TAP	7	48	6
TAP	7	96	7
TAP	7	144	0
TAP	7	240	1
TAP	7	336	7
TAP	8	48	6
TAP	8	96	5
TAP	8	144	6
TAP	8	240	5
TAP	8	288	4
HLD	8	336	1	96
TAP	9	48	0
STR	9	96	6
SI_	9	96	6	96	96	2
TAP	9	192	0
TAP	9	288	7
TAP	10	48	1
TAP	10	48	6
TAP	10	144	2
TAP	10	144	6
TAP	10	240	3
TAP	10	240	6
TAP	10	336	3
TAP	10	336	7
TAP	11	48	1
TAP	11	48	6
TAP	11	144	1
TAP	11	144	5
TAP	11	240	1
TAP	11	240	4
TAP	11	336	0
TAP	11	336	4
TAP	12	48	0
HLD	12	48	5	96
TAP	12	96	1
TAP	12	144	2
TAP	12	240	1
TAP	12	240	7
TAP	12	336	0
TAP	12	336	6
HLD	13	48	2	96
TAP	13	48	7
TAP	13	96	6
TAP	13	144	5
TAP	13	240	0
TAP	13	240	6
TAP	13	336	1
TAP	13	336	7
TAP	14	48	0
TAP	14	48	2
TAP	14	96	1
TAP	14	96	3
TAP	14	144	0
TAP	14	144	1
TAP	14	240	5
TAP	14	240	7
TAP	14	336	5
TAP	14	336	6
TAP	15	48	4
TAP	15	48	6
TAP	15	96	5
TAP	15	96	7
TAP	15	144	4
TAP	15	144	5
TAP	15	240	1
TAP	15	240	3
TAP	15	336	2
TAP	15	336	3
TAP	16	48	0
TAP	16	48	2
TAP	16	96	1
TAP	16	96	7
TAP	16	144	0
TAP	16	144	7
TAP	16	240	4
TAP	16	240	6
TAP	16	288	3
TAP	16	288	5
HLD	16	336	6	96
TAP	17	48	7
STR	17	96	1
SI_	17	96	1	96	96	5
TAP	17	192	7
BRK	17	288	0
TAP	18	96	0
TAP	18	144	0
TAP	18	192	1
TAP	18	192	7
TAP	18	264	1
TAP	18	264	6
TAP	18	336	2
TAP	19	0	2
TAP	19	48	2
TAP	19	96	3
TAP	19	96	5
TAP	19	168	3
TAP	19	168	4
TAP	19	240	4
TAP	19	288	3
TAP	19	336	2
TAP	19	360	1
TAP	20	96	7
TAP	20	144	7
TAP	20	192	0
TAP	20	192	6
TAP	20	264	1
TAP	20	264	6
TAP	20	336	5
TAP	21	0	5
TAP	21	48	5
TAP	21	96	2
TAP	21	96	4
TAP	21	168	3
TAP	21	168	4
TAP	21	240	3
TAP	21	288	4
TAP	21	336	5
TAP	21	360	6
TAP	22	96	0
HLD	22	96	6	168
TAP	22	144	0
TAP	22	192	1
TAP	22	264	1
TAP	22	336	2
HLD	22	336	5	216
TAP	23	0	2
TAP	23	48	2
TAP	23	96	3
TAP	23	168	3
TAP	23	240	4
TAP	23	288	3
TAP	23	336	2
TAP	23	360	1
HLD	24	96	1	168
TAP	24	96	7
TAP	24	144	7
TAP	24	192	6
TAP	24	264	6
HLD	24	336	2	216
TAP	24	336	5
TAP	25	0	5
TAP	25	48	5
TAP	25	96	4
TAP	25	168	4
TAP	25	240	3
TAP	25	288	4
BRK	25	312	3
BRK	25	336	4
TAP	26	48	1
TAP	26	48	7
TAP	26	144	0
TAP	26	144	2
TAP	26	240	1
TAP	26	288	2
TAP	26	336	3
TAP	27	48	0
TAP	27	48	6
TAP	27	144	5
TAP	27	144	7
TAP	27	240	6
TAP	27	288	5
TAP	27	336	4
TAP	28	48	2
TAP	28	48	4
TAP	28	144	1
TAP	28	144	3
TAP	28	240	0
TAP	28	240	2
TAP	28	288	1
TAP	28	336	0
TAP	28	336	2
TAP	29	48	3
TAP	29	48	5
TAP	29	144	4
TAP	29	144	6
TAP	29	240	5
TAP	29	240	7
TAP	29	288	6
TAP	29	336	5
TAP	29	336	7
TAP	30	48	1
TAP	30	48	7
TAP	30	144	0
TAP	30	144	2
TAP	30	240	1
TAP	30	240	3
TAP	30	288	2
TAP	30	288	4
TAP	30	336	1
TAP	30	336	3
TAP	31	48	0
TAP	31	48	6
TAP	31	144	5
TAP	31	144	7
TAP	31	240	4
TAP	31	240	6
TAP	31	288	3
TAP	31	288	5
TAP	31	336	4
TAP	31	336	6
TAP	32	48	2
TAP	32	48	4
TAP	32	144	1
STR	32	144	3
SCR	32	144	3	96	144	6
BRK	32	288	7
BRK	33	0	0
TAP	33	96	1
HLD	33	96	7	96
TAP	33	192	2
HLD	33	240	0	96
TAP	33	240	6
TAP	33	336	5
TAP	34	0	5
TAP	34	48	4
TAP	34	96	4
TAP	34	144	3
TAP	34	192	2
TAP	34	240	1
TAP	35	0	0
TAP	35	48	0
TAP	35	96	1
TAP	35	144	1
TAP	35	192	2
TAP	35	240	0
HLD	35	240	2	96
TAP	35	336	3
TAP	36	48	4
TAP	36	96	3
TAP	36	144	2
TAP	36	192	1
TAP	36	192	7
TAP	36	240	0
TAP	36	240	6
TAP	37	0	7
TAP	37	48	7
TAP	37	96	6
TAP	37	144	6
TAP	37	192	5
HLD	37	240	5	96
TAP	37	240	7
TAP	37	336	4
TAP	38	48	3
TAP	38	96	4
TAP	38	144	5
TAP	38	192	0
TAP	38	192	6
TAP	38	240	1
TAP	38	240	7
TAP	39	0	0
TAP	39	48	0
TAP	39	96	1
TAP	39	144	1
TAP	39	192	2
TAP	39	240	0
HLD	39	240	2	96
TAP	39	336	3
TAP	40	0	3
TAP	40	48	2
HLD	40	48	4	96
TAP	40	144	5
STR	40	192	6
SCL	40	192	6	96	96	3
BRK	40	288	0
BRK	41	0	7
HLD	41	96	0	96
TAP	41	96	6
TAP	41	192	5
TAP	41	240	1
HLD	41	240	7	96
TAP	41	336	2
TAP	42	0	2
TAP	42	48	3
TAP	42	96	3
TAP	42	144	4
TAP	42	192	5
TAP	42	240	6
TAP	43	0	7
TAP	43	48	7
TAP	43	96	6
TAP	43	144	6
TAP	43	192	5
HLD	43	240	5	96
TAP	43	240	7
TAP	43	336	4
TAP	44	48	3
TAP	44	96	4
TAP	44	144	5
TAP	44	192	0
TAP	44	192	6
TAP	44	240	1
TAP	44	240	7
TAP	45	0	0
TAP	45	48	0
TAP	45	96	1
TAP	45	144	1
TAP	45	192	2
TAP	45	240	0
HLD	45	240	2	96
TAP	45	336	3
TAP	46	48	4
TAP	46	96	3
TAP	46	144	2
TAP	46	192	1
TAP	46	192	7
TAP	46	240	0
TAP	46	240	6
TAP	47	0	7
TAP	47	48	7
TAP	47	96	6
TAP	47	144	6
TAP	47	192	5
HLD	47	240	5	96
TAP	47	240	7
TAP	47	336	4
TAP	48	0	4
HLD	48	48	3	96
TAP	48	48	5
TAP	48	144	2
STR	48	192	1
SCR	48	192	1	96	96	4
BRK	48	288	7
BRK	49	0	0
TAP	49	96	1
STR	49	96	7
SCL	49	96	7	96	192	4
TAP	49	192	2
TAP	49	240	2
TAP	49	288	2
TAP	49	336	3
TAP	50	48	3
TAP	50	96	3
STR	50	96	4
SCR	50	96	4	96	192	7
TAP	50	144	2
TAP	50	192	2
HLD	50	240	2	192
TAP	51	96	3
STR	51	96	7
SCL	51	96	7	96	192	4
TAP	51	192	3
TAP	51	288	2
TAP	52	0	2
TAP	52	96	1
STR	52	96	4
SCR	52	96	4	96	192	7
TAP	52	192	1
TAP	52	288	0
TAP	53	0	1
TAP	53	96	1
STR	53	96	7
SCL	53	96	7	96	192	4
TAP	53	144	2
HLD	53	192	2	96
TAP	53	336	3
TAP	54	48	2
TAP	54	96	2
STR	54	96	4
SCR	54	96	4	96	192	7
TAP	54	144	1
TAP	54	192	0
HLD	54	240	0	336
STR	55	96	7
SCL	55	96	7	96	192	4

T_REC_TAP	331
T_REC_BRK	9
T_REC_XTP	0
T_REC_HLD	23
T_REC_XHO	0
T_REC_STR	12
T_REC_BST	0
T_REC_XST	0
T_REC_TTP	0
T_REC_THO	0
T_REC_SLD	12
T_REC_ALL	387
T_NUM_TAP	343
T_NUM_BRK	9
T_NUM_HLD	23
T_NUM_SLD	12
T_NUM_ALL	387
T_JUDGE_TAP	352
T_JUDGE_HLD	63
T_JUDGE_SLD	12
T_JUDGE_ALL	427
TTM_EACHPAIRS	91
TTM_SCR_TAP	171500
TTM_SCR_BRK	23400
TTM_SCR_HLD	23000
TTM_SCR_SLD	18000
TTM_SCR_ALL	235900
TTM_SCR_S	227950
TTM_SCR_SS	235000
TTM_RAT_ACV	10038

