VERSION	0.00.00	1.03.00
FES_MODE	0
BPM_DEF	132.000	132.000	132.000	132.000
MET_DEF	4	4
RESOLUTION	384
CLK_DEF	384
COMPATIBLE_CODE	MA2

BPM	0	0	132.000
MET	0	0	4	4

TAP	2	0	0
TAP	2	0	1
TAP	2	96	6
TAP	2	192	0
TAP	2	192	1
TAP	2	288	6
TAP	3	0	3
TAP	3	0	4
TAP	3	96	3
TAP	3	96	4
TAP	3	192	3
TAP	3	192	4
TAP	4	0	6
TAP	4	0	7
TAP	4	96	1
TAP	4	192	6
TAP	4	192	7
TAP	4	288	1
TAP	5	0	5
TAP	5	96	4
TAP	5	192	2
TAP	5	288	3
TAP	6	0	0
TAP	6	0	1
TAP	6	96	6
TAP	6	192	0
TAP	6	192	1
TAP	6	288	6
TAP	7	0	4
TAP	7	0	5
TAP	7	96	4
TAP	7	96	5
TAP	7	192	2
TAP	7	192	3
TAP	7	288	2
TAP	7	288	3
TAP	8	0	6
TAP	8	96	5
TAP	8	192	1
STR	8	288	2
SI_	8	288	2	96	96	5
STR	9	96	6
SI_	9	96	6	96	96	1
TAP	10	0	0
HLD	10	0	1	288
TAP	10	96	6
TAP	10	192	0
TAP	10	288	6
HLD	11	0	2	96
TAP	11	0	5
TAP	11	96	3
HLD	11	192	2	96
TAP	11	192	5
TAP	11	288	3
HLD	12	0	6	288
TAP	12	0	7
TAP	12	96	1
TAP	12	192	7
TAP	12	288	1
TAP	13	0	2
HLD	13	0	5	96
TAP	13	96	4
TAP	13	192	2
HLD	13	192	5	96
TAP	13	288	4
TAP	14	0	0
HLD	14	0	1	288
TAP	14	96	6
TAP	14	192	0
TAP	14	288	6
TAP	15	0	4
TAP	15	0	6
TAP	15	96	5
TAP	15	192	1
TAP	15	192	3
TAP	15	288	2
TAP	16	0	1
TAP	16	96	2
TAP	16	192	6
STR	16	288	5
SCL	16	288	5	96	96	2
STR	17	96	1
SCL	17	96	1	96	96	6
TAP	18	0	7
TAP	18	96	1
HLD	18	192	4	96
HLD	18	192	5	96
TAP	19	0	6
HLD	19	96	2	72
HLD	19	96	3	72
TAP	20	0	7
TAP	20	96	6
TAP	20	192	2
TAP	20	192	3
TAP	20	288	6
TAP	21	0	2
TAP	21	48	2
TAP	21	96	5
TAP	21	144	5
STR	21	192	3
SI_	21	192	3	96	96	7
TAP	22	96	6
TAP	22	192	3
TAP	22	192	4
TAP	22	288	6
TAP	23	0	1
TAP	23	96	3
TAP	23	96	4
TAP	23	192	1
STR	24	0	6
SI_	24	0	6	96	96	3
STR	24	192	1
SI_	24	192	1	96	96	4
STR	25	0	0
SI_	25	0	0	96	192	3
TAP	26	0	1
TAP	26	96	1
TAP	26	192	4
TAP	26	192	5
TAP	26	288	1
TAP	27	0	6
TAP	27	96	6
TAP	27	192	2
TAP	27	192	3
TAP	27	288	6
TAP	28	0	7
TAP	28	96	1
TAP	28	192	5
TAP	28	288	3
STR	29	0	0
SCR	29	0	0	96	192	3
STR	29	0	7
SCL	29	0	7	96	192	4
HLD	30	0	0	96
HLD	30	96	7	96
HLD	30	192	6	96
TAP	30	288	5
HLD	31	0	7	96
HLD	31	96	0	96
HLD	31	192	1	96
TAP	31	288	2
STR	32	0	2
SI_	32	0	2	96	192	7
STR	32	0	3
SI_	32	0	3	96	192	6
TAP	33	96	3
TAP	33	96	7
TAP	33	192	2
TAP	33	192	6
TAP	33	288	3
TAP	33	288	7
TAP	34	0	2
TAP	34	0	6
HLD	34	96	2	192
HLD	34	96	5	192
TAP	35	96	0
TAP	35	96	4
TAP	35	192	1
TAP	35	192	5
TAP	35	288	0
TAP	35	288	4
TAP	36	0	1
TAP	36	0	5
HLD	36	96	2	96
TAP	36	192	3
HLD	36	288	5	96
TAP	37	0	4
TAP	37	96	3
TAP	37	96	7
TAP	37	192	2
TAP	37	192	6
TAP	37	288	3
TAP	37	288	7
TAP	38	0	2
TAP	38	0	6
TAP	38	96	4
TAP	38	96	5
TAP	38	192	4
TAP	38	192	5
TAP	38	288	2
TAP	38	288	3
TAP	39	0	2
TAP	39	0	3
TAP	39	96	6
TAP	39	192	5
TAP	39	288	1
STR	40	0	2
SCR	40	0	2	96	96	5
STR	40	192	6
SCR	40	192	6	96	96	1
HLD	41	96	7	96
HLD	41	192	1	96
HLD	41	288	5	96
HLD	42	0	7	96
TAP	42	96	3
TAP	42	192	0
TAP	42	192	4
TAP	42	288	3
TAP	42	288	7
HLD	43	96	0	96
HLD	43	192	6	96
HLD	43	288	2	96
HLD	44	0	0	96
TAP	44	96	4
TAP	44	192	3
TAP	44	192	7
TAP	44	288	0
TAP	44	288	4
HLD	45	96	2	96
TAP	45	96	4
HLD	45	192	3	96
HLD	45	288	5	96
TAP	46	0	4
TAP	46	96	2
TAP	46	96	3
TAP	46	192	4
TAP	46	192	5
TAP	46	288	2
TAP	46	288	3
TAP	47	96	3
HLD	47	96	5	96
HLD	47	192	4	96
HLD	47	288	2	96
TAP	48	0	3
BRK	48	48	6
BRK	48	144	1
STR	49	96	7
SCR	49	96	7	96	192	2
STR	50	96	2
SCR	50	96	2	96	192	5
STR	51	96	5
SCR	51	96	5	96	192	0
STR	53	96	0
SCL	53	96	0	96	192	5
STR	54	96	5
SCL	54	96	5	96	192	2
STR	55	96	2
SCL	55	96	2	96	192	7

T_REC_TAP	161
T_REC_BRK	2
T_REC_XTP	0
T_REC_HLD	35
T_REC_XHO	0
T_REC_STR	20
T_REC_BST	0
T_REC_XST	0
T_REC_TTP	0
T_REC_THO	0
T_REC_SLD	20
T_REC_ALL	238
T_NUM_TAP	181
T_NUM_BRK	2
T_NUM_HLD	35
T_NUM_SLD	20
T_NUM_ALL	238
T_JUDGE_TAP	183
T_JUDGE_HLD	86
T_JUDGE_SLD	20
T_JUDGE_ALL	289
TTM_EACHPAIRS	57
TTM_SCR_TAP	90500
TTM_SCR_BRK	5200
TTM_SCR_HLD	35000
TTM_SCR_SLD	30000
TTM_SCR_ALL	160700
TTM_SCR_S	155700
TTM_SCR_SS	160500
TTM_RAT_ACV	10012

