VERSION	0.00.00	1.03.00
FES_MODE	0
BPM_DEF	132.000	132.000	132.000	132.000
MET_DEF	4	4
RESOLUTION	384
CLK_DEF	384
COMPATIBLE_CODE	MA2

BPM	0	0	132.000
MET	0	0	4	4

TAP	2	0	1
TAP	2	96	2
TAP	2	192	1
TAP	2	288	2
STR	3	0	0
SI_	3	0	0	96	96	4
TAP	4	0	6
TAP	4	96	5
TAP	4	192	6
TAP	4	288	5
STR	5	0	7
SI_	5	0	7	96	96	3
TAP	6	0	2
TAP	6	96	4
TAP	6	192	2
TAP	6	288	4
STR	7	0	1
SCR	7	0	1	96	96	4
TAP	8	0	6
TAP	8	96	4
TAP	8	192	6
TAP	8	288	4
STR	9	0	6
SCL	9	0	6	96	96	3
TAP	10	0	1
TAP	10	0	7
TAP	10	96	1
TAP	10	192	0
TAP	10	192	6
TAP	10	288	6
HLD	11	0	1	192
TAP	11	0	7
TAP	11	96	0
TAP	11	192	7
TAP	12	0	1
TAP	12	0	7
TAP	12	96	7
TAP	12	192	0
TAP	12	192	6
TAP	12	288	0
TAP	13	0	4
HLD	13	0	5	192
TAP	13	96	3
TAP	13	192	4
TAP	14	0	0
TAP	14	0	2
TAP	14	96	2
TAP	14	192	5
TAP	14	192	7
TAP	14	288	5
TAP	15	0	2
TAP	15	96	3
TAP	15	192	4
TAP	15	288	5
HLD	16	0	6	96
TAP	16	96	2
HLD	16	192	1	96
STR	16	288	4
SI_	16	288	4	96	96	7
TAP	18	0	0
TAP	18	96	0
TAP	18	192	1
TAP	18	288	1
TAP	19	0	2
TAP	19	48	3
TAP	19	96	2
BRK	19	168	5
TAP	20	0	7
TAP	20	96	7
TAP	20	192	6
TAP	20	288	6
TAP	21	0	5
TAP	21	48	4
TAP	21	96	5
TAP	21	144	4
TAP	21	192	5
TAP	22	0	1
TAP	22	96	1
TAP	22	192	2
TAP	22	288	2
TAP	23	0	4
TAP	23	48	3
TAP	23	96	4
HLD	23	168	3	120
TAP	24	0	6
TAP	24	96	6
TAP	24	192	5
STR	24	288	5
SCR	24	288	5	96	96	0
TAP	25	192	2
TAP	26	0	0
TAP	26	0	1
TAP	26	96	0
TAP	26	96	7
TAP	26	192	6
TAP	26	192	7
TAP	26	288	5
TAP	27	0	6
TAP	27	0	7
TAP	27	96	0
TAP	27	96	7
TAP	27	192	0
TAP	27	192	1
TAP	27	288	2
TAP	28	0	3
TAP	28	0	4
TAP	28	96	2
TAP	28	96	5
TAP	28	192	1
TAP	28	192	6
TAP	28	264	5
STR	28	336	0
SI_	28	336	0	96	96	3
TAP	30	0	2
TAP	30	0	3
TAP	30	96	1
TAP	30	96	2
TAP	30	192	0
TAP	30	192	1
TAP	30	288	4
TAP	31	0	4
TAP	31	0	5
TAP	31	72	5
TAP	31	72	6
TAP	31	144	5
TAP	31	144	6
TAP	31	288	3
TAP	32	0	5
TAP	32	72	1
BRK	32	144	7
TAP	32	288	0
TAP	33	0	0
TAP	33	96	1
TAP	33	96	7
TAP	33	192	0
TAP	33	192	1
TAP	33	288	1
TAP	33	288	7
TAP	34	0	0
TAP	34	0	1
TAP	34	96	1
TAP	34	96	2
TAP	34	192	0
TAP	34	192	1
TAP	34	288	1
TAP	34	288	7
TAP	35	96	3
TAP	35	96	5
TAP	35	192	4
TAP	35	192	5
TAP	35	288	3
TAP	35	288	5
TAP	36	0	4
TAP	36	0	5
TAP	36	96	5
TAP	36	96	6
TAP	36	192	4
TAP	36	192	5
TAP	36	288	3
TAP	36	288	5
TAP	37	96	0
TAP	37	96	7
TAP	37	192	6
TAP	37	192	7
TAP	37	288	0
TAP	37	288	7
TAP	38	0	6
TAP	38	0	7
TAP	38	96	5
TAP	38	96	7
TAP	38	192	6
TAP	38	192	7
TAP	38	288	0
TAP	38	288	7
TAP	39	96	3
TAP	39	96	4
TAP	39	192	2
TAP	39	192	3
TAP	39	288	3
TAP	39	288	4
TAP	40	0	2
STR	40	48	2
SI_	40	48	2	96	96	5
TAP	41	96	0
HLD	41	96	6	192
TAP	41	192	7
TAP	41	288	0
TAP	42	0	7
TAP	42	96	5
TAP	42	192	7
TAP	42	288	0
HLD	43	96	2	192
TAP	43	96	4
TAP	43	192	3
TAP	43	288	4
TAP	44	0	3
TAP	44	96	1
TAP	44	192	3
TAP	44	288	4
HLD	45	96	0	192
TAP	45	96	7
TAP	45	192	1
TAP	45	288	7
TAP	46	0	1
TAP	46	96	2
TAP	46	192	1
TAP	46	288	7
TAP	47	96	3
HLD	47	96	4	192
TAP	47	192	5
TAP	47	288	3
TAP	48	0	5
STR	48	96	3
SI_	48	96	3	96	96	0
STR	48	96	4
SI_	48	96	4	96	96	7
HLD	49	96	0	384
HLD	50	96	1	384
HLD	51	96	2	384
HLD	52	96	3	384
HLD	53	96	4	384
HLD	54	96	5	384
HLD	55	96	6	384

T_REC_TAP	185
T_REC_BRK	2
T_REC_XTP	0
T_REC_HLD	16
T_REC_XHO	0
T_REC_STR	10
T_REC_BST	0
T_REC_XST	0
T_REC_TTP	0
T_REC_THO	0
T_REC_SLD	10
T_REC_ALL	223
T_NUM_TAP	195
T_NUM_BRK	2
T_NUM_HLD	16
T_NUM_SLD	10
T_NUM_ALL	223
T_JUDGE_TAP	197
T_JUDGE_HLD	87
T_JUDGE_SLD	10
T_JUDGE_ALL	294
TTM_EACHPAIRS	52
TTM_SCR_TAP	97500
TTM_SCR_BRK	5200
TTM_SCR_HLD	16000
TTM_SCR_SLD	15000
TTM_SCR_ALL	133700
TTM_SCR_S	129500
TTM_SCR_SS	133500
TTM_RAT_ACV	10014

