VERSION	0.00.00	1.03.00
FES_MODE	0
BPM_DEF	132.000	132.000	132.000	132.000
MET_DEF	4	4
RESOLUTION	384
CLK_DEF	384
COMPATIBLE_CODE	MA2

BPM	0	0	132.000
MET	0	0	4	4

TAP	2	0	1
TAP	2	96	0
TAP	2	192	1
TAP	2	288	0
TAP	3	0	7
TAP	3	96	6
TAP	4	0	6
TAP	4	96	7
TAP	4	192	6
TAP	4	288	7
TAP	5	0	0
TAP	5	96	1
TAP	6	0	1
TAP	6	96	0
TAP	6	192	1
TAP	6	288	0
TAP	7	0	7
TAP	7	96	6
TAP	8	0	1
TAP	8	96	0
TAP	8	192	1
TAP	8	288	0
STR	9	0	7
SI_	9	0	7	96	96	4
TAP	10	0	7
TAP	10	96	6
TAP	10	192	7
TAP	10	288	6
TAP	11	0	5
TAP	11	96	4
TAP	12	0	1
TAP	12	96	2
TAP	12	192	1
TAP	12	288	2
TAP	13	0	3
TAP	13	96	4
TAP	14	0	6
TAP	14	96	5
TAP	14	192	6
TAP	14	288	5
TAP	15	0	4
TAP	15	96	3
TAP	16	0	1
TAP	16	96	2
TAP	16	192	1
TAP	16	288	2
STR	17	0	2
SI_	17	0	2	96	96	5
TAP	18	96	5
TAP	18	192	5
TAP	18	288	5
TAP	19	0	6
TAP	19	96	7
TAP	19	192	0
TAP	20	96	2
TAP	20	192	2
TAP	20	288	2
TAP	21	0	1
TAP	21	96	0
TAP	21	192	7
TAP	22	96	6
TAP	22	192	6
TAP	22	288	6
TAP	23	0	5
TAP	23	96	4
TAP	23	192	3
TAP	24	96	1
TAP	24	192	1
TAP	24	288	1
TAP	25	0	2
TAP	25	96	3
TAP	25	192	3
TAP	25	192	4
TAP	26	0	6
TAP	26	96	7
BRK	26	192	7
TAP	27	0	1
TAP	27	96	0
BRK	27	192	0
TAP	28	0	1
TAP	28	96	2
TAP	28	192	3
TAP	28	288	4
TAP	29	0	5
TAP	29	96	6
TAP	29	192	7
TAP	30	0	6
TAP	30	96	7
BRK	30	192	7
TAP	31	0	1
TAP	31	96	0
BRK	31	192	0
TAP	32	0	1
TAP	32	96	2
HLD	32	192	3	192
TAP	33	96	1
TAP	33	192	0
TAP	33	288	1
TAP	34	0	0
TAP	34	96	7
TAP	34	192	6
TAP	35	96	6
TAP	35	192	7
TAP	35	288	6
TAP	36	0	7
TAP	36	96	0
TAP	36	192	1
TAP	37	96	1
TAP	37	192	0
TAP	37	288	1
TAP	38	0	0
TAP	38	96	7
TAP	38	192	6
TAP	39	96	1
TAP	39	192	0
TAP	39	288	1
TAP	40	0	0
STR	40	96	7
SI_	40	96	7	96	96	4
TAP	41	96	6
TAP	41	192	5
TAP	41	288	6
TAP	42	0	5
TAP	42	96	4
TAP	42	192	3
TAP	43	96	1
TAP	43	192	2
TAP	43	288	1
TAP	44	0	2
TAP	44	96	3
TAP	44	192	4
TAP	45	96	6
TAP	45	192	5
TAP	45	288	6
TAP	46	0	5
TAP	46	96	4
TAP	46	192	3
TAP	47	96	1
TAP	47	192	2
TAP	47	288	1
TAP	48	0	2
STR	48	96	2
SI_	48	96	2	96	96	5
HLD	49	96	5	288
HLD	50	96	6	288
HLD	51	96	7	289
HLD	52	96	0	289
STR	53	96	1
SI_	53	96	1	96	96	6
HLD	54	96	7	289
HLD	55	96	0	289

T_REC_TAP	130
T_REC_BRK	4
T_REC_XTP	0
T_REC_HLD	7
T_REC_XHO	0
T_REC_STR	5
T_REC_BST	0
T_REC_XST	0
T_REC_TTP	0
T_REC_THO	0
T_REC_SLD	5
T_REC_ALL	151
T_NUM_TAP	135
T_NUM_BRK	4
T_NUM_HLD	7
T_NUM_SLD	5
T_NUM_ALL	151
T_JUDGE_TAP	139
T_JUDGE_HLD	44
T_JUDGE_SLD	5
T_JUDGE_ALL	188
TTM_EACHPAIRS	1
TTM_SCR_TAP	67500
TTM_SCR_BRK	10400
TTM_SCR_HLD	7000
TTM_SCR_SLD	7500
TTM_SCR_ALL	92400
TTM_SCR_S	89250
TTM_SCR_SS	92000
TTM_RAT_ACV	10043

