VERSION	0.00.00	1.03.00
FES_MODE	0
BPM_DEF	102.000	102.000	102.000	102.000
MET_DEF	4	4
RESOLUTION	384
CLK_DEF	384
COMPATIBLE_CODE	MA2

BPM	0	0	102.000
MET	0	0	4	4

STR	2	0	3
SI_	2	0	3	96	96	0
STR	2	0	4
SI_	2	0	4	96	96	7
TAP	2	336	0
TAP	2	336	6
TAP	3	0	3
TAP	3	48	1
TAP	3	48	7
TAP	3	96	4
TAP	3	144	5
TAP	3	144	7
TAP	3	192	3
TAP	3	240	0
TAP	3	240	2
BRK	3	288	4
BRK	3	336	4
HLD	4	0	6	48
TAP	4	0	7
HLD	4	48	1	96
TAP	4	96	2
HLD	4	144	5	96
TAP	4	192	4
HLD	4	240	3	96
TAP	4	288	4
HLD	4	336	0	48
HLD	5	0	1	48
HLD	5	48	6	96
TAP	5	96	5
HLD	5	144	2	96
TAP	5	192	3
HLD	5	240	4	32
BRK	5	272	3
TAP	5	336	6
TAP	5	368	4
HLD	6	0	5	48
HLD	6	48	2	96
TAP	6	96	1
HLD	6	144	6	96
TAP	6	192	7
HLD	6	240	0	96
TAP	6	288	7
HLD	6	336	3	48
HLD	7	0	2	48
HLD	7	48	5	96
TAP	7	96	6
HLD	7	144	1	48
BRK	7	192	0
TAP	7	224	2
TAP	7	240	3
HLD	7	272	5	48
TAP	7	320	4
TAP	7	336	4
BRK	8	0	7
TAP	8	32	5
TAP	8	48	4
HLD	8	80	2	48
TAP	8	128	3
TAP	8	144	3
BRK	8	192	0
TAP	8	224	2
TAP	8	240	3
HLD	8	272	5	48
TAP	8	320	4
TAP	8	336	4
BRK	9	0	7
TAP	9	32	5
TAP	9	48	4
HLD	9	80	2	48
TAP	9	128	3
TAP	9	144	3
BRK	9	192	0
TAP	9	224	2
TAP	9	240	3
HLD	9	272	5	48
TAP	9	320	4
TAP	9	336	4
TAP	10	0	7
TAP	10	64	0
TAP	10	68	1
TAP	10	72	2
TAP	10	76	3
TAP	10	80	4
TAP	10	84	5
TAP	10	88	6
TAP	10	92	7
BRK	10	96	0
STR	10	192	1
SI_	10	192	1	96	48	4
STR	10	192	6
SI_	10	192	6	96	48	3
STR	10	240	3
SI_	10	240	3	96	32	0
STR	10	240	4
SI_	10	240	4	96	32	7
TAP	11	0	2
TAP	11	0	6
TAP	11	32	1
TAP	11	32	5
TAP	11	80	3
TAP	11	80	7
TAP	11	144	0
TAP	11	144	4
TAP	11	192	2
BRK	11	192	6
BRK	11	224	3
TAP	11	224	7
TAP	11	240	0
BRK	11	240	4
BRK	11	272	1
TAP	11	272	5
HLD	12	0	4	96
TAP	12	48	6
HLD	12	96	3	80
TAP	12	128	1
HLD	12	176	5	16
TAP	12	192	2
TAP	12	240	4
TAP	12	256	3
TAP	12	272	4
TAP	12	288	2
TAP	12	304	3
TAP	12	320	2
TAP	12	336	5
TAP	12	352	4
TAP	12	368	5
HLD	13	0	3	96
TAP	13	48	1
HLD	13	96	4	80
TAP	13	128	6
HLD	13	176	2	16
TAP	13	192	5
TAP	13	240	3
TAP	13	256	4
TAP	13	272	3
TAP	13	288	5
TAP	13	304	4
TAP	13	320	5
TAP	13	336	2
TAP	13	352	3
TAP	13	368	2
HLD	14	0	4	96
TAP	14	48	6
HLD	14	96	3	80
TAP	14	128	1
HLD	14	176	5	16
STR	14	192	0
SI_	14	192	0	96	48	4
TAP	14	208	0
TAP	14	224	0
TAP	14	240	0
TAP	14	256	0
TAP	14	272	0
BRK	14	288	0
TAP	15	0	5
HLD	15	32	7	48
HLD	15	80	0	64
TAP	15	144	2
TAP	15	192	1
TAP	15	192	3
TAP	15	240	7
TAP	15	288	4
TAP	15	288	6
BRK	15	336	0
STR	16	0	4
SI_	16	0	4	96	32	7
STR	16	32	4
SI_	16	32	4	96	32	1
STR	16	48	0
SI_	16	48	0	96	32	5
STR	16	80	0
SI_	16	80	0	96	16	3
TAP	16	192	6
TAP	16	240	1
HLD	16	288	3	60
TAP	16	348	1
TAP	16	360	2
TAP	16	372	3
HLD	17	0	4	60
TAP	17	60	6
TAP	17	72	5
TAP	17	84	4
HLD	17	96	3	60
TAP	17	156	1
TAP	17	168	2
TAP	17	180	3
HLD	17	192	4	60
TAP	17	252	6
TAP	17	264	5
TAP	17	276	4
BRK	17	288	3
STR	18	0	3
SI_	18	0	3	96	32	0
STR	18	32	3
SI_	18	32	3	96	32	6
STR	18	48	7
SI_	18	48	7	96	32	2
STR	18	80	7
SI_	18	80	7	96	16	4
TAP	18	192	1
TAP	18	240	6
HLD	18	288	4	60
TAP	18	348	6
TAP	18	360	5
TAP	18	372	4
HLD	19	0	3	60
TAP	19	60	1
TAP	19	72	2
TAP	19	84	3
HLD	19	96	4	60
TAP	19	156	6
TAP	19	168	5
TAP	19	180	4
HLD	19	192	3	60
TAP	19	252	1
TAP	19	264	2
TAP	19	276	3
BRK	19	288	4
TAP	20	0	5
HLD	20	48	5	96
TAP	20	96	7
HLD	20	128	7	96
TAP	20	176	0
HLD	20	192	0	96
TAP	20	240	2
HLD	20	272	2	160
TAP	20	348	0
TAP	20	360	7
TAP	20	372	6
HLD	21	0	5	144
TAP	21	60	7
TAP	21	72	0
TAP	21	84	1
HLD	21	96	2	144
TAP	21	156	0
TAP	21	168	7
TAP	21	180	6
HLD	21	192	5	144
TAP	21	252	7
TAP	21	264	0
TAP	21	276	1
HLD	21	288	2	48
TAP	22	0	2
HLD	22	48	2	96
TAP	22	96	0
HLD	22	128	0	96
TAP	22	176	7
HLD	22	192	7	96
TAP	22	240	5
HLD	22	272	5	64
TAP	23	0	4
TAP	23	0	6
TAP	23	48	3
TAP	23	48	5
TAP	23	96	2
TAP	23	96	4
TAP	23	144	1
TAP	23	144	3
TAP	23	192	1
TAP	23	192	3
TAP	23	208	2
TAP	23	208	4
TAP	23	224	3
TAP	23	224	5
TAP	23	240	4
TAP	23	240	6
TAP	23	288	4
TAP	23	288	6
TAP	23	304	3
TAP	23	304	5
TAP	23	320	2
TAP	23	320	4
TAP	23	336	1
TAP	23	336	3
TAP	24	0	5
TAP	24	32	4
TAP	24	80	1
TAP	24	80	3
TAP	24	128	2
TAP	24	144	3
TAP	24	176	5
TAP	24	192	4
TAP	24	192	6
TAP	24	240	1
TAP	24	240	3
TAP	24	288	6
TAP	24	320	0
TAP	24	320	1
TAP	24	368	2
TAP	25	0	3
TAP	25	48	0
TAP	25	80	5
TAP	25	96	4
TAP	25	144	7
TAP	25	176	2
TAP	25	192	3
TAP	25	224	4
TAP	25	240	5
TAP	25	272	1
TAP	25	320	6
TAP	25	320	7
TAP	25	368	3
TAP	26	0	4
TAP	26	0	5
TAP	26	32	4
TAP	26	48	2
TAP	26	48	3
TAP	26	128	7
TAP	26	144	0
TAP	26	192	5
TAP	26	224	2
TAP	26	272	4
TAP	26	320	3
TAP	26	368	3
TAP	27	0	6
TAP	27	32	4
TAP	27	48	5
TAP	27	96	1
TAP	27	128	3
TAP	27	144	2
TAP	27	192	0
TAP	27	224	2
TAP	27	240	5
BRK	27	272	7
TAP	27	368	6
TAP	28	0	1
TAP	28	24	0
TAP	28	48	2
TAP	28	72	6
TAP	28	96	7
TAP	28	120	5
TAP	28	144	1
TAP	28	216	4
TAP	28	216	5
TAP	28	264	2
TAP	28	264	3
TAP	28	312	4
TAP	28	336	1
TAP	29	24	3
TAP	29	48	6
TAP	29	120	0
TAP	29	144	6
TAP	29	168	4
TAP	29	192	7
TAP	29	224	1
TAP	29	256	3
TAP	29	336	5
TAP	29	360	0
TAP	30	0	2
TAP	30	24	7
BRK	30	80	6
BRK	30	128	1
TAP	30	216	3
TAP	30	240	2
TAP	30	240	4
TAP	30	264	4
TAP	30	288	3
TAP	30	288	5
TAP	30	368	0
TAP	30	368	7
TAP	31	0	2
TAP	31	0	6
TAP	31	96	1
TAP	31	96	5
STR	31	192	3
SI_	31	192	3	96	32	0
STR	31	192	4
SI_	31	192	4	96	32	7
TAP	31	240	3
TAP	31	240	4
TAP	31	272	3
TAP	31	272	4
TAP	32	0	6
TAP	32	32	5
TAP	32	48	4
TAP	32	80	3
TAP	32	80	7
TAP	32	96	6
TAP	32	128	5
TAP	32	144	0
TAP	32	144	4
TAP	32	176	7
TAP	32	192	6
TAP	32	224	5
BRK	32	272	1
BRK	32	272	3
BRK	32	320	0
BRK	32	320	2
TAP	33	0	1
TAP	33	32	2
TAP	33	48	3
TAP	33	80	4
TAP	33	80	6
TAP	33	96	5
TAP	33	128	4
TAP	33	144	1
TAP	33	144	3
TAP	33	176	2
TAP	33	192	3
BRK	33	240	1
BRK	33	240	5
BRK	33	320	2
BRK	33	320	6
TAP	34	0	1
TAP	34	32	2
TAP	34	48	3
TAP	34	80	0
TAP	34	80	4
TAP	34	96	1
TAP	34	128	2
TAP	34	144	3
TAP	34	144	7
TAP	34	176	0
TAP	34	192	1
TAP	34	224	2
BRK	34	272	4
BRK	34	272	6
BRK	34	320	5
BRK	34	320	7
HLD	35	32	1	48
HLD	35	48	0	48
HLD	35	128	6	48
HLD	35	144	7	48
HLD	35	192	2	48
HLD	35	224	3	48
HLD	35	272	5	48
HLD	35	288	4	48
TAP	36	0	1
TAP	36	32	2
TAP	36	48	3
TAP	36	80	0
TAP	36	80	4
TAP	36	96	1
TAP	36	128	2
TAP	36	144	3
TAP	36	144	7
TAP	36	176	0
TAP	36	192	1
TAP	36	224	2
BRK	36	272	4
BRK	36	272	6
BRK	36	320	5
BRK	36	320	7
TAP	37	0	6
TAP	37	32	5
TAP	37	48	4
TAP	37	80	1
TAP	37	80	3
TAP	37	96	2
TAP	37	128	3
TAP	37	144	4
TAP	37	144	6
TAP	37	176	5
TAP	37	192	4
BRK	37	240	2
BRK	37	240	6
BRK	37	320	1
BRK	37	320	5
TAP	38	0	6
TAP	38	32	5
TAP	38	48	4
TAP	38	80	3
TAP	38	80	7
TAP	38	96	6
TAP	38	128	5
TAP	38	144	0
TAP	38	144	4
TAP	38	176	7
TAP	38	192	6
TAP	38	224	5
BRK	38	272	1
BRK	38	272	3
BRK	38	320	0
BRK	38	320	2
HLD	39	32	6	48
HLD	39	48	7	48
HLD	39	128	1	48
HLD	39	144	0	48
HLD	39	192	5	48
HLD	39	224	4	48
HLD	39	272	2	48
HLD	39	288	3	48
STR	40	0	4
SI_	40	0	4	96	32	7
STR	40	32	4
SI_	40	32	4	96	32	1
STR	40	48	3
SI_	40	48	3	96	32	6
STR	40	80	3
SI_	40	80	3	96	32	0
HLD	40	192	5	80
TAP	40	272	2
TAP	40	288	3
TAP	40	336	4
STR	41	0	3
SI_	41	0	3	96	32	0
STR	41	32	3
SI_	41	32	3	96	32	6
STR	41	48	4
SI_	41	48	4	96	32	1
STR	41	80	4
SI_	41	80	4	96	32	7
HLD	41	192	2	80
TAP	41	272	5
BRK	41	288	4
STR	42	0	7
SI_	42	0	7	96	32	4
STR	42	32	7
SI_	42	32	7	96	32	2
STR	42	48	0
SI_	42	48	0	96	32	5
STR	42	80	0
SI_	42	80	0	96	32	3
HLD	42	192	6	80
TAP	42	272	1
TAP	42	288	0
TAP	42	336	7
TAP	43	0	4
TAP	43	0	6
TAP	43	32	3
TAP	43	32	5
TAP	43	80	0
TAP	43	80	7
TAP	43	128	1
TAP	43	128	3
TAP	43	144	2
TAP	43	144	4
BRK	43	192	1
BRK	43	192	5
BRK	43	224	3
BRK	43	224	7
BRK	43	240	0
BRK	43	240	4
BRK	43	272	2
BRK	43	272	6

T_REC_TAP	352
T_REC_BRK	53
T_REC_XTP	0
T_REC_HLD	72
T_REC_XHO	0
T_REC_STR	29
T_REC_BST	0
T_REC_XST	0
T_REC_TTP	0
T_REC_THO	0
T_REC_SLD	29
T_REC_ALL	535
T_NUM_TAP	381
T_NUM_BRK	53
T_NUM_HLD	72
T_NUM_SLD	29
T_NUM_ALL	535
T_JUDGE_TAP	434
T_JUDGE_HLD	216
T_JUDGE_SLD	29
T_JUDGE_ALL	679
TTM_EACHPAIRS	80
TTM_SCR_TAP	190500
TTM_SCR_BRK	137800
TTM_SCR_HLD	72000
TTM_SCR_SLD	43500
TTM_SCR_ALL	443800
TTM_SCR_S	425350
TTM_SCR_SS	438500
TTM_RAT_ACV	10120

