VERSION	0.00.00	1.03.00
FES_MODE	0
BPM_DEF	102.000	102.000	102.000	102.000
MET_DEF	4	4
RESOLUTION	384
CLK_DEF	384
COMPATIBLE_CODE	MA2

BPM	0	0	102.000
MET	0	0	4	4

HLD	4	0	5	192
TAP	4	48	4
TAP	4	120	4
TAP	4	192	0
TAP	4	240	0
TAP	4	288	0
TAP	4	288	7
HLD	5	0	2	192
TAP	5	48	3
TAP	5	120	3
TAP	5	192	7
TAP	5	240	7
TAP	5	288	0
TAP	5	288	7
HLD	6	0	6	192
TAP	6	48	7
TAP	6	120	7
TAP	6	192	3
TAP	6	240	3
TAP	6	288	3
TAP	6	288	4
HLD	7	0	1	120
TAP	7	48	0
TAP	7	120	0
TAP	7	192	1
TAP	7	192	6
TAP	7	312	4
TAP	7	336	3
TAP	8	0	5
TAP	8	0	6
TAP	8	120	4
TAP	8	144	3
TAP	8	192	1
TAP	8	192	2
TAP	8	312	4
TAP	8	336	3
TAP	9	0	0
TAP	9	0	7
TAP	9	120	4
TAP	9	144	3
TAP	9	192	2
TAP	9	192	5
TAP	9	312	4
TAP	9	336	3
TAP	11	0	1
HLD	11	48	6	96
TAP	11	96	4
TAP	11	144	3
TAP	11	192	2
TAP	11	192	5
BRK	11	264	0
BRK	11	264	7
TAP	12	0	1
TAP	12	48	0
TAP	12	96	1
HLD	12	120	2	168
HLD	12	192	1	96
TAP	13	0	6
TAP	13	48	7
TAP	13	96	6
HLD	13	120	5	168
HLD	13	192	6	96
TAP	13	336	1
TAP	13	336	6
TAP	14	0	2
TAP	14	48	5
TAP	14	96	3
HLD	14	120	4	168
HLD	14	192	3	96
TAP	15	0	3
TAP	15	48	4
TAP	15	96	2
TAP	15	144	5
TAP	15	192	1
TAP	15	240	6
BRK	15	288	0
TAP	16	0	7
TAP	16	48	1
TAP	16	72	0
TAP	16	120	5
TAP	16	144	4
TAP	16	192	2
TAP	16	240	1
TAP	16	288	0
TAP	16	288	7
TAP	17	0	6
TAP	17	48	5
TAP	17	96	1
TAP	17	96	6
TAP	17	144	2
TAP	17	192	3
TAP	17	240	2
TAP	17	288	1
TAP	17	288	6
TAP	18	0	0
TAP	18	48	6
TAP	18	72	7
TAP	18	120	2
TAP	18	144	3
TAP	18	192	5
TAP	18	240	6
TAP	18	288	0
TAP	18	288	7
TAP	19	0	1
TAP	19	48	2
TAP	19	96	1
TAP	19	96	6
TAP	19	144	5
TAP	19	192	4
TAP	19	240	5
TAP	19	288	1
TAP	19	288	6
TAP	20	0	0
TAP	20	48	5
TAP	20	72	4
TAP	20	144	0
TAP	20	192	7
TAP	20	240	6
TAP	20	288	0
TAP	20	288	7
TAP	21	0	4
TAP	21	48	1
TAP	21	72	0
TAP	21	144	4
TAP	21	192	3
TAP	21	240	2
TAP	21	288	3
TAP	21	288	4
TAP	22	0	7
TAP	22	48	2
TAP	22	72	3
TAP	22	144	7
TAP	22	192	1
TAP	22	240	2
TAP	22	288	1
TAP	22	288	7
TAP	23	0	4
TAP	23	48	4
TAP	23	96	3
TAP	23	144	2
BRK	23	192	6
BRK	23	192	7
BRK	23	288	0
BRK	23	288	1
TAP	24	0	2
TAP	24	48	3
TAP	24	144	3
TAP	24	192	1
TAP	24	240	3
TAP	24	336	4
TAP	25	0	5
TAP	25	48	4
TAP	25	144	0
TAP	25	168	7
STR	25	192	0
SI_	25	192	0	96	96	4
TAP	25	240	6
TAP	25	288	5
TAP	25	336	7
TAP	26	0	1
TAP	26	48	0
TAP	26	144	0
TAP	26	192	2
TAP	26	240	0
TAP	26	336	7
TAP	27	0	2
TAP	27	0	5
TAP	27	96	3
TAP	27	96	4
TAP	27	192	1
TAP	27	240	6
TAP	27	288	0
TAP	27	288	7
TAP	28	0	2
TAP	28	48	3
TAP	28	144	3
TAP	28	192	1
TAP	28	240	3
TAP	28	336	4
TAP	29	0	5
TAP	29	48	4
TAP	29	144	0
TAP	29	168	7
STR	29	192	0
SI_	29	192	0	96	96	4
TAP	29	240	6
TAP	29	288	5
TAP	29	336	7
TAP	30	0	1
TAP	30	48	0
TAP	30	144	0
TAP	30	192	2
TAP	30	240	0
TAP	30	336	7
TAP	31	0	2
TAP	31	0	5
TAP	31	96	3
TAP	31	96	4
TAP	31	192	1
TAP	31	240	6
TAP	31	288	0
TAP	31	288	7
TAP	32	0	0
STR	32	0	7
SCL	32	0	7	96	48	4
TAP	32	48	1
TAP	32	96	3
TAP	32	144	2
TAP	32	192	1
TAP	32	240	0
TAP	32	240	7
TAP	32	264	0
TAP	32	264	7
TAP	32	312	6
TAP	32	312	7
STR	33	0	0
SCR	33	0	0	96	48	3
TAP	33	0	7
TAP	33	48	6
TAP	33	96	4
TAP	33	144	5
TAP	33	192	6
TAP	33	240	0
TAP	33	240	7
TAP	33	312	1
TAP	33	312	2
TAP	34	0	0
STR	34	0	7
SCL	34	0	7	96	48	4
TAP	34	48	1
TAP	34	96	3
TAP	34	144	2
TAP	34	192	1
TAP	34	240	0
TAP	34	240	7
TAP	34	264	0
TAP	34	264	7
TAP	34	312	6
TAP	34	312	7
TAP	35	48	0
TAP	35	96	1
TAP	35	120	1
TAP	35	168	4
TAP	35	192	4
TAP	35	240	6
BRK	35	288	0
BRK	35	288	7
TAP	36	0	0
STR	36	0	7
SCL	36	0	7	96	48	4
TAP	36	48	1
TAP	36	96	3
TAP	36	144	2
TAP	36	192	1
TAP	36	240	0
TAP	36	240	7
TAP	36	264	0
TAP	36	264	7
TAP	36	312	6
TAP	36	312	7
STR	37	0	0
SCR	37	0	0	96	48	3
TAP	37	0	7
TAP	37	48	6
TAP	37	96	4
TAP	37	144	5
TAP	37	192	6
TAP	37	240	0
TAP	37	240	7
TAP	37	312	1
TAP	37	312	2
TAP	38	0	0
STR	38	0	7
SCL	38	0	7	96	48	4
TAP	38	48	1
TAP	38	96	3
TAP	38	144	2
TAP	38	192	1
TAP	38	240	0
TAP	38	240	7
TAP	38	264	0
TAP	38	264	7
TAP	38	312	6
TAP	38	312	7
TAP	39	48	0
TAP	39	96	1
TAP	39	120	1
TAP	39	168	4
TAP	39	192	4
TAP	39	240	6
STR	39	288	0
SI_	39	288	0	96	96	5
BRK	39	288	7
STR	40	0	4
SI_	40	0	4	96	96	1
TAP	40	192	7
TAP	40	240	7
STR	40	288	7
SI_	40	288	7	96	96	2
STR	41	0	3
SI_	41	0	3	96	96	6
TAP	41	192	0
TAP	41	240	0
STR	41	288	0
SI_	41	288	0	96	96	5
STR	42	0	4
SI_	42	0	4	96	96	1
TAP	42	192	7
TAP	42	240	7
STR	42	288	7
SI_	42	288	7	96	96	2
STR	43	0	3
SI_	43	0	3	96	96	6
TAP	43	192	0
TAP	43	240	0
BRK	43	288	0

T_REC_TAP	262
T_REC_BRK	11
T_REC_XTP	0
T_REC_HLD	11
T_REC_XHO	0
T_REC_STR	16
T_REC_BST	0
T_REC_XST	0
T_REC_TTP	0
T_REC_THO	0
T_REC_SLD	16
T_REC_ALL	316
T_NUM_TAP	278
T_NUM_BRK	11
T_NUM_HLD	11
T_NUM_SLD	16
T_NUM_ALL	316
T_JUDGE_TAP	289
T_JUDGE_HLD	66
T_JUDGE_SLD	16
T_JUDGE_ALL	371
TTM_EACHPAIRS	52
TTM_SCR_TAP	139000
TTM_SCR_BRK	28600
TTM_SCR_HLD	11000
TTM_SCR_SLD	24000
TTM_SCR_ALL	202600
TTM_SCR_S	195500
TTM_SCR_SS	201500
TTM_RAT_ACV	10054

