VERSION	0.00.00	1.03.00
FES_MODE	0
BPM_DEF	102.000	102.000	102.000	102.000
MET_DEF	4	4
RESOLUTION	384
CLK_DEF	384
COMPATIBLE_CODE	MA2

BPM	0	0	102.000
MET	0	0	4	4

TAP	4	0	0
TAP	4	96	1
TAP	4	192	2
TAP	4	240	2
TAP	4	288	2
TAP	5	0	7
TAP	5	96	6
TAP	5	192	5
TAP	5	240	5
TAP	5	288	5
TAP	6	0	3
TAP	6	96	4
TAP	6	192	5
TAP	6	240	5
TAP	6	288	5
TAP	7	0	4
TAP	7	96	3
TAP	7	192	2
TAP	7	240	2
TAP	7	288	2
TAP	8	0	5
TAP	8	48	5
TAP	8	96	5
TAP	8	192	1
TAP	8	240	1
TAP	8	288	1
TAP	9	0	6
TAP	9	48	6
TAP	9	96	6
TAP	9	192	4
TAP	9	240	4
TAP	9	288	4
TAP	11	0	6
TAP	11	96	1
TAP	11	192	7
TAP	11	240	7
BRK	11	288	0
BRK	11	288	7
TAP	12	192	3
TAP	12	240	2
TAP	12	288	3
TAP	12	336	2
TAP	13	192	4
TAP	13	240	5
TAP	13	288	4
TAP	13	336	5
STR	14	192	7
SI_	14	192	7	96	48	3
TAP	15	96	1
TAP	15	144	0
TAP	15	192	7
TAP	15	264	0
TAP	15	264	7
TAP	16	0	6
TAP	16	48	6
TAP	16	96	5
TAP	16	144	5
TAP	16	192	4
HLD	17	0	7	96
TAP	17	96	0
HLD	17	240	7	48
TAP	17	288	0
TAP	18	0	1
TAP	18	48	1
TAP	18	96	2
TAP	18	144	2
TAP	18	192	3
HLD	19	0	7	96
TAP	19	96	0
HLD	19	240	7	48
TAP	19	288	0
TAP	20	0	5
TAP	20	48	4
TAP	20	96	3
TAP	20	144	4
HLD	20	192	5	72
TAP	20	264	3
HLD	21	0	7	96
TAP	21	96	0
HLD	21	240	7	48
TAP	21	288	0
TAP	22	0	2
TAP	22	48	3
TAP	22	96	4
TAP	22	144	3
HLD	22	192	2	72
TAP	22	264	4
TAP	23	0	7
TAP	23	48	7
TAP	23	96	0
TAP	23	144	0
TAP	23	192	3
TAP	23	192	4
TAP	23	288	3
TAP	23	288	4
TAP	24	0	0
TAP	24	48	0
TAP	24	96	7
TAP	24	144	7
TAP	24	192	6
TAP	24	240	5
TAP	24	288	4
TAP	25	0	7
TAP	25	48	7
TAP	25	96	0
TAP	25	144	0
TAP	25	192	1
TAP	25	240	2
TAP	25	288	3
TAP	26	0	1
TAP	26	48	1
TAP	26	96	0
TAP	26	144	0
TAP	26	192	7
TAP	26	240	6
STR	26	288	5
SI_	26	288	5	96	48	2
BRK	27	288	0
TAP	28	0	7
TAP	28	48	6
TAP	28	144	6
TAP	28	240	6
TAP	28	336	6
TAP	29	0	0
TAP	29	48	1
TAP	29	144	1
TAP	29	240	1
TAP	29	336	1
TAP	30	48	7
TAP	30	144	7
TAP	30	240	7
TAP	30	336	7
TAP	31	0	5
TAP	31	96	2
STR	31	192	7
SI_	31	192	7	96	48	4
TAP	32	0	2
TAP	32	48	3
TAP	32	96	4
TAP	32	144	5
TAP	32	192	6
TAP	32	264	6
TAP	32	264	7
TAP	32	312	6
TAP	32	312	7
TAP	33	0	5
TAP	33	48	4
TAP	33	96	3
TAP	33	144	2
STR	33	192	1
SI_	33	192	1	96	48	6
TAP	34	0	2
TAP	34	48	3
TAP	34	96	4
TAP	34	144	5
TAP	34	192	6
TAP	34	264	6
TAP	34	264	7
TAP	34	312	6
TAP	34	312	7
HLD	35	48	1	72
HLD	35	120	6	72
HLD	35	192	2	72
HLD	35	264	5	72
TAP	36	0	3
TAP	36	48	2
TAP	36	96	1
TAP	36	144	0
TAP	36	192	7
TAP	36	264	6
TAP	36	264	7
TAP	36	312	6
TAP	36	312	7
TAP	37	0	4
TAP	37	48	5
TAP	37	96	6
TAP	37	144	7
STR	37	192	0
SI_	37	192	0	96	48	5
TAP	38	0	3
TAP	38	48	2
TAP	38	96	1
TAP	38	144	0
TAP	38	192	7
TAP	38	264	6
TAP	38	264	7
TAP	38	312	6
TAP	38	312	7
HLD	39	48	7	72
HLD	39	120	0	72
HLD	39	192	4	72
HLD	39	264	3	72
TAP	40	0	3
TAP	40	24	2
TAP	40	48	1
TAP	40	72	0
TAP	40	192	1
TAP	40	192	7
TAP	40	264	1
TAP	40	264	7
TAP	41	0	4
TAP	41	24	5
TAP	41	48	6
TAP	41	72	7
TAP	41	192	0
TAP	41	192	6
TAP	41	264	0
TAP	41	264	6
TAP	42	0	5
TAP	42	24	4
TAP	42	48	3
TAP	42	72	2
TAP	42	192	1
TAP	42	192	3
TAP	42	264	1
TAP	42	264	3
TAP	43	0	1
TAP	43	24	2
TAP	43	72	3
TAP	43	120	4
TAP	43	144	5
TAP	43	192	1
TAP	43	192	7
TAP	43	264	0
TAP	43	264	6

T_REC_TAP	196
T_REC_BRK	3
T_REC_XTP	0
T_REC_HLD	16
T_REC_XHO	0
T_REC_STR	5
T_REC_BST	0
T_REC_XST	0
T_REC_TTP	0
T_REC_THO	0
T_REC_SLD	5
T_REC_ALL	225
T_NUM_TAP	201
T_NUM_BRK	3
T_NUM_HLD	16
T_NUM_SLD	5
T_NUM_ALL	225
T_JUDGE_TAP	204
T_JUDGE_HLD	48
T_JUDGE_SLD	5
T_JUDGE_ALL	257
TTM_EACHPAIRS	20
TTM_SCR_TAP	100500
TTM_SCR_BRK	7800
TTM_SCR_HLD	16000
TTM_SCR_SLD	7500
TTM_SCR_ALL	131800
TTM_SCR_S	127600
TTM_SCR_SS	131500
TTM_RAT_ACV	10022

