VERSION	0.00.00	1.03.00
FES_MODE	0
BPM_DEF	102.000	102.000	102.000	102.000
MET_DEF	4	4
RESOLUTION	384
CLK_DEF	384
COMPATIBLE_CODE	MA2

BPM	0	0	102.000
MET	0	0	4	4

TAP	4	48	0
TAP	4	120	1
TAP	4	192	2
TAP	5	48	4
TAP	5	120	5
TAP	5	192	6
TAP	6	48	7
TAP	6	120	6
TAP	6	192	5
TAP	7	48	2
TAP	7	120	1
TAP	7	192	1
TAP	7	192	2
TAP	8	0	5
TAP	8	0	6
TAP	8	192	1
TAP	8	192	5
TAP	9	0	2
TAP	9	0	6
TAP	9	192	0
TAP	9	192	7
TAP	11	0	1
TAP	11	72	1
TAP	11	192	0
TAP	11	192	7
TAP	11	264	0
TAP	11	264	7
HLD	12	48	1	240
TAP	12	120	2
TAP	12	192	3
HLD	13	48	6	240
TAP	13	120	5
TAP	13	192	4
TAP	13	336	7
HLD	14	48	0	240
TAP	14	120	1
TAP	14	192	2
TAP	15	96	5
TAP	15	192	1
TAP	15	288	6
TAP	16	0	1
TAP	16	72	2
TAP	16	144	1
TAP	16	192	1
TAP	16	288	1
TAP	16	288	6
TAP	17	0	7
TAP	17	96	0
TAP	17	240	0
TAP	17	240	7
TAP	17	288	0
TAP	17	288	7
TAP	18	0	3
TAP	18	72	4
TAP	18	144	3
TAP	18	192	3
TAP	18	288	2
TAP	18	288	3
TAP	19	0	4
TAP	19	96	4
TAP	19	96	5
TAP	19	240	2
TAP	19	240	5
TAP	19	288	2
TAP	19	288	5
TAP	20	0	7
TAP	20	72	6
TAP	20	144	7
TAP	20	192	0
TAP	20	240	0
TAP	20	288	0
TAP	21	0	1
TAP	21	72	0
TAP	21	144	1
TAP	21	192	2
TAP	21	240	2
TAP	21	288	2
TAP	22	0	3
TAP	22	72	2
TAP	22	144	3
TAP	22	192	4
TAP	22	240	4
TAP	22	288	4
TAP	23	0	3
TAP	23	48	3
TAP	23	96	2
TAP	23	144	1
TAP	23	192	1
TAP	23	192	6
BRK	23	288	0
BRK	23	288	7
HLD	24	0	0	384
TAP	24	96	1
TAP	24	288	1
TAP	25	96	7
TAP	25	240	0
TAP	25	288	0
HLD	26	0	7	384
TAP	26	96	6
TAP	26	288	6
STR	27	0	1
SI_	27	0	1	96	96	5
HLD	28	0	7	384
TAP	28	96	6
TAP	28	288	6
TAP	29	96	1
TAP	29	240	0
TAP	29	288	0
HLD	30	0	0	288
TAP	30	96	1
TAP	30	288	1
TAP	31	96	0
TAP	31	96	7
TAP	31	192	0
TAP	31	192	7
TAP	31	288	0
TAP	31	288	7
TAP	32	0	1
TAP	32	48	2
TAP	32	96	3
TAP	32	144	4
TAP	32	192	5
TAP	32	264	6
TAP	32	312	5
TAP	32	312	6
TAP	33	0	5
TAP	33	48	4
TAP	33	96	3
TAP	33	144	2
TAP	33	192	1
TAP	33	240	2
TAP	33	312	2
TAP	34	0	3
TAP	34	48	4
TAP	34	96	5
TAP	34	144	6
TAP	34	192	7
TAP	34	264	0
TAP	34	312	0
TAP	34	312	7
TAP	35	48	2
TAP	35	120	6
TAP	35	192	1
TAP	35	264	1
TAP	35	264	6
TAP	36	0	6
TAP	36	48	5
TAP	36	96	4
TAP	36	144	3
TAP	36	192	2
TAP	36	264	1
TAP	36	312	1
TAP	36	312	2
TAP	37	0	2
TAP	37	48	3
TAP	37	96	4
TAP	37	144	5
TAP	37	192	6
TAP	37	240	5
TAP	37	312	5
TAP	38	0	4
TAP	38	48	3
TAP	38	96	2
TAP	38	144	1
TAP	38	192	0
TAP	38	264	7
TAP	38	312	0
TAP	38	312	7
TAP	39	48	5
TAP	39	120	1
TAP	39	192	6
TAP	39	264	1
TAP	39	264	6
HLD	40	0	2	144
TAP	40	192	1
TAP	40	264	1
TAP	40	264	2
HLD	41	0	6	144
TAP	41	192	5
TAP	41	264	5
TAP	41	264	6
HLD	42	0	0	144
TAP	42	192	7
TAP	42	264	0
TAP	42	264	7
TAP	43	0	4
TAP	43	72	5
TAP	43	192	2
BRK	43	264	1
BRK	43	264	6

T_REC_TAP	174
T_REC_BRK	4
T_REC_XTP	0
T_REC_HLD	10
T_REC_XHO	0
T_REC_STR	1
T_REC_BST	0
T_REC_XST	0
T_REC_TTP	0
T_REC_THO	0
T_REC_SLD	1
T_REC_ALL	190
T_NUM_TAP	175
T_NUM_BRK	4
T_NUM_HLD	10
T_NUM_SLD	1
T_NUM_ALL	190
T_JUDGE_TAP	179
T_JUDGE_HLD	108
T_JUDGE_SLD	1
T_JUDGE_ALL	288
TTM_EACHPAIRS	29
TTM_SCR_TAP	87500
TTM_SCR_BRK	10400
TTM_SCR_HLD	10000
TTM_SCR_SLD	1500
TTM_SCR_ALL	109400
TTM_SCR_S	105750
TTM_SCR_SS	109000
TTM_RAT_ACV	10036

