VERSION	0.00.00	1.03.00
FES_MODE	0
BPM_DEF	102.000	102.000	102.000	102.000
MET_DEF	4	4
RESOLUTION	384
CLK_DEF	384
COMPATIBLE_CODE	MA2

BPM	0	0	102.000
MET	0	0	4	4

TAP	4	96	6
TAP	4	288	6
TAP	5	96	5
TAP	5	288	5
TAP	6	96	6
TAP	6	288	6
TAP	7	96	1
TAP	7	192	1
TAP	8	0	5
TAP	8	192	2
TAP	9	0	7
TAP	9	192	0
TAP	9	192	7
TAP	11	192	0
TAP	11	192	7
TAP	12	96	1
TAP	12	192	2
TAP	12	288	1
TAP	13	96	6
TAP	13	192	5
TAP	13	288	6
TAP	13	336	6
TAP	14	96	0
TAP	14	192	1
TAP	14	288	0
TAP	15	96	7
TAP	15	192	6
TAP	15	288	5
TAP	16	96	1
TAP	16	288	6
TAP	17	96	2
TAP	17	288	1
TAP	17	288	6
TAP	18	96	6
TAP	18	288	1
TAP	19	96	5
TAP	19	288	1
TAP	19	288	6
TAP	20	96	7
TAP	20	192	7
TAP	20	288	7
TAP	21	96	0
TAP	21	192	0
TAP	21	288	0
TAP	22	96	1
TAP	22	192	1
TAP	22	288	1
TAP	23	96	0
TAP	23	192	7
TAP	23	288	7
HLD	24	96	6	96
TAP	24	288	7
HLD	25	96	5	96
TAP	25	288	6
HLD	26	96	4	96
TAP	26	288	5
STR	27	96	5
SI_	27	96	5	96	96	1
TAP	28	96	0
TAP	28	288	0
TAP	29	96	1
TAP	29	288	1
TAP	30	96	7
TAP	30	288	7
TAP	31	96	1
TAP	31	96	6
TAP	31	192	1
TAP	31	192	6
BRK	31	288	0
TAP	32	96	7
TAP	32	192	6
TAP	32	288	5
TAP	33	96	1
TAP	33	192	1
TAP	33	288	1
TAP	34	96	0
TAP	34	192	7
TAP	34	288	6
TAP	35	96	6
TAP	35	288	5
TAP	36	96	0
TAP	36	192	1
TAP	36	288	2
TAP	37	96	6
TAP	37	192	6
TAP	37	288	6
TAP	38	96	7
TAP	38	192	0
TAP	38	288	1
TAP	39	96	0
TAP	39	288	1
TAP	39	288	6
TAP	40	96	7
TAP	40	192	6
TAP	40	288	6
TAP	40	288	7
TAP	41	96	0
TAP	41	192	1
TAP	41	288	0
TAP	41	288	1
TAP	42	96	5
TAP	42	192	2
TAP	42	288	2
TAP	42	288	5
TAP	43	96	0
BRK	43	288	0

T_REC_TAP	99
T_REC_BRK	2
T_REC_XTP	0
T_REC_HLD	3
T_REC_XHO	0
T_REC_STR	1
T_REC_BST	0
T_REC_XST	0
T_REC_TTP	0
T_REC_THO	0
T_REC_SLD	1
T_REC_ALL	106
T_NUM_TAP	100
T_NUM_BRK	2
T_NUM_HLD	3
T_NUM_SLD	1
T_NUM_ALL	106
T_JUDGE_TAP	102
T_JUDGE_HLD	12
T_JUDGE_SLD	1
T_JUDGE_ALL	115
TTM_EACHPAIRS	10
TTM_SCR_TAP	50000
TTM_SCR_BRK	5200
TTM_SCR_HLD	3000
TTM_SCR_SLD	1500
TTM_SCR_ALL	59700
TTM_SCR_S	57750
TTM_SCR_SS	59500
TTM_RAT_ACV	10033

