VERSION	0.00.00	1.03.00
FES_MODE	0
BPM_DEF	125.000	125.000	125.000	125.000
MET_DEF	4	4
RESOLUTION	384
CLK_DEF	384
COMPATIBLE_CODE	MA2

BPM	0	0	125.000
MET	0	0	4	4

STR	1	0	0
SI_	1	0	0	96	24	2
STR	1	0	4
SI_	1	0	4	96	24	6
STR	1	96	0
SV_	1	96	0	96	48	3
STR	1	96	4
SV_	1	96	4	96	48	7
STR	1	288	1
SCL	1	288	1	96	264	6
STR	1	288	5
SCL	1	288	5	96	264	2
TAP	2	0	1
TAP	2	0	5
STR	2	288	0
SI_	2	288	0	96	48	2
STR	2	288	7
SI_	2	288	7	96	48	3
STR	3	0	0
SI_	3	0	0	96	48	4
STR	3	0	7
SI_	3	0	7	96	48	5
STR	3	96	0
SI_	3	96	0	96	48	3
STR	3	96	7
SI_	3	96	7	96	48	2
STR	3	192	0
SI_	3	192	0	96	48	5
STR	3	192	7
SI_	3	192	7	96	48	4
TAP	3	288	0
TAP	3	288	7
STR	4	0	2
SCL	4	0	2	96	240	5
TAP	4	96	2
TAP	4	96	5
STR	4	288	2
SCL	4	288	2	96	48	5
STR	5	192	0
SI_	5	192	0	96	48	3
STR	5	192	7
SI_	5	192	7	96	48	4
TAP	6	0	2
STR	6	0	5
SCR	6	0	5	96	192	2
TAP	6	96	3
TAP	6	192	4
TAP	6	288	5
STR	7	0	6
SI_	7	0	6	96	48	2
TAP	7	96	6
STR	7	96	7
SI_	7	96	7	96	48	3
STR	7	192	0
SI_	7	192	0	96	48	4
TAP	7	192	7
TAP	7	288	0
STR	7	288	1
SI_	7	288	1	96	48	5
TAP	7	336	1
HLD	8	0	1	96
STR	8	96	6
SI_	8	96	6	96	48	2
TAP	8	144	7
TAP	8	168	7
HLD	8	192	6	96
STR	8	288	3
SCR	8	288	3	96	48	6
TAP	9	0	3
STR	9	0	7
SCR	9	0	7	96	48	2
STR	9	96	4
SCR	9	96	4	96	48	7
TAP	9	96	7
STR	9	192	0
SCR	9	192	0	96	96	7
TAP	9	192	4
HLD	10	0	4	48
HLD	10	48	0	0
HLD	10	96	1	0
HLD	10	96	4	48
HLD	10	144	2	0
HLD	10	192	3	0
HLD	10	192	4	48
HLD	10	240	5	0
HLD	10	288	4	48
HLD	10	288	6	0
HLD	10	336	7	0
HLD	11	0	0	48
HLD	11	0	4	0
HLD	11	48	4	0
HLD	11	96	1	48
HLD	11	120	5	0
HLD	11	168	5	0
HLD	11	192	2	48
HLD	11	240	6	0
HLD	11	288	3	48
HLD	11	312	7	0
HLD	11	360	7	0
HLD	12	0	3	48
HLD	12	48	7	0
HLD	12	96	3	48
HLD	12	96	6	0
HLD	12	144	5	0
HLD	12	192	3	48
HLD	12	192	4	0
HLD	12	240	2	0
HLD	12	288	1	0
HLD	12	288	3	48
HLD	12	336	0	0
HLD	13	0	3	0
HLD	13	0	7	48
HLD	13	48	2	0
HLD	13	96	6	48
HLD	13	120	1	0
HLD	13	168	1	0
HLD	13	192	5	48
STR	13	240	0
SCR	13	240	0	96	24	3
STR	13	288	4
SCR	13	288	4	96	24	7
BRK	13	336	0
HLD	14	0	4	0
HLD	14	48	3	0
HLD	14	96	2	0
HLD	14	96	7	48
HLD	14	144	1	0
HLD	14	192	0	0
HLD	14	192	7	48
HLD	14	240	6	0
HLD	14	288	5	0
HLD	14	288	7	48
HLD	14	336	4	0
HLD	15	0	3	48
HLD	15	0	7	0
HLD	15	48	7	0
HLD	15	96	3	48
HLD	15	120	6	0
HLD	15	168	6	0
HLD	15	192	2	48
HLD	15	240	5	0
HLD	15	288	1	48
HLD	15	312	4	0
HLD	15	360	4	0
HLD	16	0	0	48
HLD	16	48	4	0
HLD	16	96	0	48
HLD	16	96	5	0
HLD	16	144	6	0
HLD	16	192	0	48
HLD	16	192	7	0
HLD	16	240	1	0
HLD	16	288	0	48
HLD	16	288	2	0
HLD	16	336	3	0
HLD	17	0	0	0
STR	17	0	4
SCR	17	0	4	96	48	7
HLD	17	48	5	0
STR	17	96	0
SCR	17	96	0	96	48	3
HLD	17	96	4	0
HLD	17	144	1	0
HLD	17	192	0	0
STR	17	192	4
SI_	17	192	4	96	48	0
HLD	17	240	5	0
HLD	18	0	1	144
TAP	18	48	2
TAP	18	96	3
TAP	18	144	4
TAP	18	168	1
TAP	18	192	4
TAP	18	216	1
TAP	18	264	2
TAP	18	288	3
TAP	18	336	5
TAP	18	360	4
TAP	19	0	3
TAP	19	0	6
TAP	19	48	5
TAP	19	72	4
TAP	19	120	2
TAP	19	144	3
TAP	19	168	1
TAP	19	216	1
TAP	19	264	4
TAP	19	288	3
TAP	19	336	7
TAP	19	360	0
HLD	20	0	6	144
TAP	20	48	5
TAP	20	96	4
TAP	20	144	3
TAP	20	168	6
TAP	20	192	3
TAP	20	216	6
TAP	20	264	5
TAP	20	288	4
TAP	20	336	0
STR	20	336	7
SI_	20	336	7	96	24	3
TAP	21	0	2
TAP	21	0	6
STR	21	48	0
SI_	21	48	0	96	24	4
TAP	21	48	7
TAP	21	96	1
TAP	21	96	5
TAP	21	144	0
TAP	21	144	7
TAP	21	240	6
TAP	21	240	7
TAP	21	288	0
TAP	21	288	1
HLD	22	0	6	144
TAP	22	48	5
TAP	22	96	4
TAP	22	144	3
TAP	22	168	6
TAP	22	192	3
TAP	22	216	6
TAP	22	264	5
TAP	22	288	4
TAP	22	336	2
TAP	22	360	3
TAP	23	0	1
TAP	23	0	4
TAP	23	48	2
TAP	23	72	3
TAP	23	120	5
TAP	23	144	4
TAP	23	168	6
TAP	23	216	6
TAP	23	264	3
TAP	23	288	4
TAP	23	336	0
TAP	23	360	7
HLD	24	0	1	144
TAP	24	48	2
TAP	24	96	3
TAP	24	144	4
TAP	24	168	1
TAP	24	192	4
TAP	24	216	1
TAP	24	264	2
TAP	24	288	3
STR	24	336	0
SI_	24	336	0	96	24	4
TAP	24	336	7
TAP	25	0	1
TAP	25	0	5
TAP	25	48	0
STR	25	48	7
SI_	25	48	7	96	24	3
TAP	25	96	2
TAP	25	96	6
TAP	25	144	0
TAP	25	144	7
TAP	25	240	0
TAP	25	240	1
TAP	25	288	6
STR	25	288	7
SCR	25	288	7	96	360	2
TAP	26	0	3
TAP	26	0	7
HLD	26	96	4	72
TAP	26	192	4
TAP	26	240	5
TAP	26	288	6
TAP	27	0	3
TAP	27	0	7
TAP	27	24	0
TAP	27	24	4
TAP	27	72	0
TAP	27	72	4
TAP	27	96	3
TAP	27	96	7
TAP	27	144	3
TAP	27	144	7
TAP	27	168	0
TAP	27	168	4
STR	27	288	0
SCL	27	288	0	96	360	5
TAP	27	288	1
TAP	28	0	0
TAP	28	0	4
HLD	28	96	3	72
TAP	28	192	3
TAP	28	240	2
TAP	28	288	1
TAP	29	0	0
TAP	29	0	4
TAP	29	24	3
TAP	29	24	7
HLD	29	72	3	48
HLD	29	72	7	48
STR	29	144	3
SUR	29	144	3	96	96	1
STR	29	144	7
SUR	29	144	7	96	96	5
STR	30	0	0
SI_	30	0	0	96	24	4
TAP	30	96	0
STR	30	144	0
SI_	30	144	0	96	24	4
TAP	30	240	0
STR	30	288	0
SI_	30	288	0	96	48	4
STR	30	336	4
SXL	30	336	4	96	144	0
SXR	30	336	4	96	144	0
TAP	31	240	1
TAP	31	240	7
TAP	31	288	2
TAP	31	288	6
TAP	31	336	3
TAP	31	336	5
TAP	32	0	2
TAP	32	0	4
TAP	32	48	1
TAP	32	48	5
TAP	32	96	0
TAP	32	96	6
TAP	32	144	7
TAP	32	168	0
TAP	32	192	7
TAP	32	216	0
TAP	32	240	1
TAP	32	240	6
TAP	32	288	2
TAP	32	288	3
TAP	32	336	4
TAP	32	336	5
TAP	33	0	0
TAP	33	24	4
TAP	33	48	0
TAP	33	72	4
TAP	33	96	4
TAP	33	120	0
TAP	33	144	4
TAP	33	168	4
TAP	33	192	0
TAP	33	216	4
TAP	33	240	4
TAP	33	264	0
TAP	33	288	4
TAP	33	312	4
TAP	33	336	0
TAP	33	360	4
BRK	34	0	0
STR	35	0	0
SI_	35	0	0	96	24	3
TAP	35	0	7
STR	35	96	0
SI_	35	96	0	96	24	5
TAP	35	96	7
TAP	35	168	6
STR	35	192	0
SCR	35	192	0	96	24	3
TAP	35	216	6
STR	35	288	0
SI_	35	288	0	96	24	4
TAP	35	288	5
TAP	35	336	6
STR	36	0	0
SI_	36	0	0	96	24	3
TAP	36	0	7
STR	36	96	0
SI_	36	96	0	96	24	5
TAP	36	96	7
TAP	36	168	6
STR	36	192	0
SCR	36	192	0	96	24	3
TAP	36	216	6
STR	36	288	0
SI_	36	288	0	96	24	4
TAP	36	288	5
TAP	36	336	6
STR	37	0	0
SI_	37	0	0	96	24	3
TAP	37	0	7
STR	37	96	0
SI_	37	96	0	96	24	5
TAP	37	96	7
TAP	37	168	6
STR	37	192	0
SCR	37	192	0	96	24	3
TAP	37	240	4
STR	37	288	0
SI_	37	288	0	96	24	4
TAP	37	288	5
TAP	37	336	6
STR	38	0	0
SI_	38	0	0	96	24	3
TAP	38	0	7
TAP	38	48	7
TAP	38	72	7
STR	38	96	0
SI_	38	96	0	96	24	5
TAP	38	120	7
TAP	38	144	7
STR	38	192	0
SCR	38	192	0	96	72	6
TAP	38	240	7
TAP	38	288	0
TAP	38	288	7
BST	39	0	0
SF_	39	0	0	96	24	4
TAP	39	96	0
TAP	39	144	1
BST	39	144	7
SF_	39	144	7	96	24	3
TAP	39	240	7
BRK	39	288	0
TAP	39	288	6
TAP	40	0	0
STR	40	0	7
SI_	40	0	7	96	24	4
TAP	40	96	0
STR	40	96	7
SI_	40	96	7	96	24	2
TAP	40	168	1
STR	40	192	7
SCL	40	192	7	96	24	4
TAP	40	216	1
TAP	40	288	2
STR	40	288	7
SI_	40	288	7	96	24	3
TAP	40	336	1
TAP	41	0	0
STR	41	0	7
SI_	41	0	7	96	24	4
TAP	41	96	0
STR	41	96	7
SI_	41	96	7	96	24	2
TAP	41	168	1
STR	41	192	7
SCL	41	192	7	96	24	4
TAP	41	240	3
TAP	41	288	2
STR	41	288	7
SI_	41	288	7	96	24	3
TAP	41	336	1
TAP	42	0	0
STR	42	0	7
SI_	42	0	7	96	24	4
TAP	42	48	0
TAP	42	72	0
STR	42	96	7
SI_	42	96	7	96	24	2
TAP	42	120	0
TAP	42	144	0
TAP	42	192	7
BST	42	240	0
SF_	42	240	0	96	24	4
BRK	42	312	0
STR	43	0	1
SCR	43	0	1	96	48	4
STR	43	0	7
SCL	43	0	7	96	48	4
TAP	43	96	1
TAP	43	96	7
TAP	43	192	4
TAP	43	240	3
TAP	43	240	5
TAP	43	288	2
TAP	43	288	6
TAP	43	336	1
TAP	43	336	7
TAP	44	0	0
BST	45	0	0
SCR	45	0	0	96	192	0
BST	45	0	7
SCL	45	0	7	96	192	7
BST	45	24	1
SCR	45	24	1	96	192	1
BST	45	24	6
SCL	45	24	6	96	192	6
BST	45	48	2
SCR	45	48	2	96	192	2
BST	45	48	5
SCL	45	48	5	96	192	5
BST	45	72	3
SCR	45	72	3	96	192	3
BST	45	72	4
SCL	45	72	4	96	192	4
STR	46	0	0
SI_	46	0	0	96	48	2
STR	46	0	7
SI_	46	0	7	96	48	3
STR	46	96	0
SI_	46	96	0	96	48	4
STR	46	96	7
SI_	46	96	7	96	48	5
STR	46	192	0
SI_	46	192	0	96	48	2
STR	46	192	7
SI_	46	192	7	96	48	3
TAP	46	288	0
TAP	46	288	7
STR	47	0	5
SCR	47	0	5	96	240	2
TAP	47	96	2
TAP	47	96	5
STR	47	288	5
SCR	47	288	5	96	48	2
STR	48	192	3
SI_	48	192	3	96	48	0
STR	48	192	7
SI_	48	192	7	96	48	4
STR	48	288	3
SCL	48	288	3	96	168	4
STR	49	192	0
SV_	49	192	0	96	48	6
STR	49	192	4
SV_	49	192	4	96	48	2
STR	49	288	4
SCR	49	288	4	96	168	3
STR	50	192	3
SV_	50	192	3	96	48	6
STR	50	192	7
SV_	50	192	7	96	48	0
STR	50	288	7
SF_	50	288	7	96	48	3
TAP	51	0	7
STR	51	96	0
SI_	51	96	0	96	48	4
STR	51	96	7
SI_	51	96	7	96	48	3
TAP	51	120	2
TAP	51	120	5
TAP	51	144	2
TAP	51	144	5
TAP	51	192	0
TAP	51	192	7
STR	51	288	3
SI_	51	288	3	96	24	7
STR	51	288	4
SI_	51	288	4	96	24	0
TAP	51	312	1
TAP	51	312	6
TAP	51	336	1
TAP	51	336	6
STR	52	0	3
SI_	52	0	3	96	24	1
STR	52	0	4
SI_	52	0	4	96	24	6
STR	52	96	3
SI_	52	96	3	96	48	7
STR	52	96	4
SI_	52	96	4	96	144	0
TAP	52	192	3
TAP	52	192	4
BRK	52	288	7

T_REC_TAP	244
T_REC_BRK	5
T_REC_XTP	0
T_REC_HLD	89
T_REC_XHO	0
T_REC_STR	97
T_REC_BST	11
T_REC_XST	0
T_REC_TTP	0
T_REC_THO	0
T_REC_SLD	109
T_REC_ALL	555
T_NUM_TAP	341
T_NUM_BRK	16
T_NUM_HLD	89
T_NUM_SLD	109
T_NUM_ALL	555
T_JUDGE_TAP	357
T_JUDGE_HLD	101
T_JUDGE_SLD	109
T_JUDGE_ALL	567
TTM_EACHPAIRS	121
TTM_SCR_TAP	170500
TTM_SCR_BRK	41600
TTM_SCR_HLD	89000
TTM_SCR_SLD	163500
TTM_SCR_ALL	464600
TTM_SCR_S	449150
TTM_SCR_SS	463000
TTM_RAT_ACV	10034

