VERSION	0.00.00	1.03.00
FES_MODE	0
BPM_DEF	125.000	125.000	125.000	125.000
MET_DEF	4	4
RESOLUTION	384
CLK_DEF	384
COMPATIBLE_CODE	MA2

BPM	0	0	125.000
MET	0	0	4	4

HLD	2	0	0	288
TAP	2	96	5
TAP	2	288	5
HLD	3	0	1	96
TAP	3	96	2
HLD	3	192	6	96
TAP	3	288	5
HLD	4	0	0	288
TAP	4	96	5
TAP	4	288	5
TAP	5	0	7
STR	5	96	2
SI_	5	96	2	96	96	7
TAP	5	96	3
BRK	5	288	1
HLD	6	0	0	288
TAP	6	96	4
TAP	6	192	4
TAP	6	288	4
HLD	7	0	2	96
TAP	7	96	6
HLD	7	192	5	96
TAP	7	288	1
HLD	8	0	0	96
TAP	8	0	6
TAP	8	96	7
TAP	8	144	6
TAP	8	192	1
HLD	8	192	7	96
TAP	8	288	0
TAP	8	336	1
TAP	9	0	7
TAP	9	48	6
STR	9	96	0
SI_	9	96	0	96	96	4
TAP	9	144	1
STR	9	192	3
SI_	9	192	3	96	96	7
TAP	10	48	0
TAP	10	96	1
TAP	10	144	2
TAP	10	192	3
TAP	10	240	4
TAP	10	288	5
HLD	10	336	6	384
TAP	11	48	7
TAP	11	144	0
TAP	11	240	1
TAP	11	336	2
TAP	12	48	7
TAP	12	96	6
TAP	12	144	5
TAP	12	192	4
TAP	12	240	3
TAP	12	288	2
HLD	12	336	1	240
TAP	13	48	0
STR	13	144	0
SI_	13	144	0	96	48	4
STR	13	240	2
SI_	13	240	2	96	48	6
TAP	14	48	0
TAP	14	96	1
TAP	14	144	2
TAP	14	192	3
TAP	14	240	4
TAP	14	288	5
HLD	14	336	6	384
TAP	15	48	7
TAP	15	144	0
TAP	15	240	1
TAP	15	336	2
TAP	16	48	7
TAP	16	96	6
TAP	16	144	5
TAP	16	192	4
TAP	16	240	3
TAP	16	288	2
TAP	16	336	1
TAP	17	0	4
TAP	17	48	4
TAP	17	96	0
TAP	17	144	0
TAP	17	192	6
TAP	17	240	6
HLD	17	288	2	96
TAP	18	0	6
TAP	18	96	4
TAP	18	192	0
TAP	18	288	2
TAP	19	0	7
TAP	19	48	6
TAP	19	72	7
HLD	19	144	0	96
TAP	19	288	1
TAP	19	336	2
TAP	20	0	0
TAP	20	48	7
TAP	20	96	6
TAP	20	144	5
HLD	20	192	4	96
TAP	20	288	0
TAP	20	336	1
TAP	21	0	0
TAP	21	0	7
TAP	21	96	1
TAP	21	96	5
TAP	21	240	3
TAP	21	240	7
TAP	21	288	1
TAP	21	288	5
TAP	22	0	1
TAP	22	96	3
TAP	22	192	7
TAP	22	288	5
TAP	23	0	0
TAP	23	48	1
TAP	23	72	0
HLD	23	144	7	96
TAP	23	288	6
TAP	23	336	5
TAP	24	0	7
TAP	24	48	0
TAP	24	96	1
TAP	24	144	2
HLD	24	192	3	96
TAP	24	288	7
TAP	24	336	6
TAP	25	0	0
TAP	25	0	7
TAP	25	96	2
TAP	25	96	6
TAP	25	240	0
TAP	25	240	4
BRK	25	288	2
BRK	25	288	6
TAP	26	0	7
TAP	26	24	7
TAP	26	72	6
TAP	26	120	5
HLD	26	168	6	120
TAP	27	0	3
TAP	27	24	6
TAP	27	72	2
TAP	27	96	7
STR	27	144	1
SI_	27	144	1	96	96	4
STR	27	168	0
SI_	27	168	0	96	96	5
TAP	28	0	0
TAP	28	24	0
TAP	28	72	1
TAP	28	120	2
HLD	28	168	1	120
TAP	28	240	0
TAP	29	0	4
TAP	29	24	1
TAP	29	72	0
TAP	29	72	5
STR	29	144	6
SI_	29	144	6	96	96	3
STR	29	144	7
SI_	29	144	7	96	96	2
TAP	30	0	0
TAP	30	24	0
BRK	30	72	1
TAP	30	144	7
TAP	30	168	7
BRK	30	216	6
TAP	30	288	0
TAP	30	312	7
TAP	30	336	0
BRK	30	360	7
TAP	31	288	1
TAP	32	96	1
HLD	32	288	1	96
HLD	33	0	2	48
HLD	33	48	3	72
HLD	33	120	4	72
HLD	33	192	5	72
HLD	33	264	6	72
HLD	33	336	7	48
HLD	34	0	0	288
STR	35	0	6
SCL	35	0	6	96	48	3
STR	35	192	1
SCR	35	192	1	96	48	4
STR	36	0	4
SCL	36	0	4	96	48	1
STR	36	192	3
SCR	36	192	3	96	48	6
STR	37	0	5
SCL	37	0	5	96	48	2
STR	37	192	1
SI_	37	192	1	96	48	4
STR	37	288	5
SI_	37	288	5	96	48	0
STR	38	0	7
SI_	38	0	7	96	48	2
STR	38	96	3
SI_	38	96	3	96	48	6
STR	38	192	0
SI_	38	192	0	96	48	3
TAP	39	0	5
TAP	39	0	6
TAP	39	96	0
TAP	39	144	1
TAP	39	144	2
TAP	39	240	1
TAP	39	288	0
TAP	39	288	7
STR	40	0	3
SCR	40	0	3	96	48	6
STR	40	192	4
SCL	40	192	4	96	48	1
STR	41	0	1
SI_	41	0	1	96	48	6
STR	41	96	5
SI_	41	96	5	96	48	2
STR	41	288	3
SI_	41	288	3	96	192	0
STR	41	288	4
SI_	41	288	4	96	192	7
TAP	42	240	3
TAP	42	240	5
TAP	42	312	2
TAP	42	312	4
TAP	43	0	4
TAP	43	0	5
TAP	43	96	6
TAP	43	96	7
TAP	43	192	0
TAP	43	192	1
STR	43	288	1
SI_	43	288	1	96	288	6
STR	43	288	2
SI_	43	288	2	96	288	5
TAP	45	0	4
TAP	45	24	5
TAP	45	48	6
TAP	45	72	7
HLD	45	96	0	576
STR	46	0	7
SI_	46	0	7	96	49	2
STR	46	192	3
SI_	46	192	3	96	48	6
HLD	47	0	0	288
TAP	47	96	6
STR	47	288	7
SI_	47	288	7	96	48	4
STR	48	0	6
SI_	48	0	6	96	48	1
STR	48	96	2
SI_	48	96	2	96	48	5
STR	48	192	3
SI_	48	192	3	96	48	0
STR	49	0	7
SI_	49	0	7	96	192	2
STR	49	192	0
SI_	49	192	0	96	192	5
STR	50	0	6
SI_	50	0	6	96	192	3
STR	50	192	1
SI_	50	192	1	96	192	4
HLD	51	0	7	96
TAP	51	120	7
TAP	51	144	7
HLD	51	192	0	96
TAP	51	312	0
TAP	51	336	0
TAP	52	0	7
TAP	52	48	6
STR	52	96	5
SCR	52	96	5	96	48	0
TAP	52	144	4
STR	52	192	1
SCR	52	192	1	96	48	4

T_REC_TAP	162
T_REC_BRK	6
T_REC_XTP	0
T_REC_HLD	31
T_REC_XHO	0
T_REC_STR	39
T_REC_BST	0
T_REC_XST	0
T_REC_TTP	0
T_REC_THO	0
T_REC_SLD	39
T_REC_ALL	277
T_NUM_TAP	201
T_NUM_BRK	6
T_NUM_HLD	31
T_NUM_SLD	39
T_NUM_ALL	277
T_JUDGE_TAP	207
T_JUDGE_HLD	107
T_JUDGE_SLD	39
T_JUDGE_ALL	353
TTM_EACHPAIRS	23
TTM_SCR_TAP	100500
TTM_SCR_BRK	15600
TTM_SCR_HLD	31000
TTM_SCR_SLD	58500
TTM_SCR_ALL	205600
TTM_SCR_S	198850
TTM_SCR_SS	205000
TTM_RAT_ACV	10029

