VERSION	0.00.00	1.03.00
FES_MODE	0
BPM_DEF	125.000	125.000	125.000	125.000
MET_DEF	4	4
RESOLUTION	384
CLK_DEF	384
COMPATIBLE_CODE	MA2

BPM	0	0	125.000
MET	0	0	4	4

HLD	2	0	0	672
TAP	3	0	7
TAP	3	96	1
TAP	3	192	1
TAP	3	288	7
HLD	4	0	0	384
HLD	5	0	7	192
HLD	5	192	1	96
TAP	6	0	1
HLD	6	0	7	672
TAP	6	96	1
TAP	6	192	1
TAP	6	288	1
TAP	7	0	0
TAP	7	96	6
TAP	7	192	6
TAP	7	288	0
HLD	8	0	1	96
TAP	8	144	1
HLD	8	192	6	96
TAP	8	336	6
TAP	9	0	0
TAP	9	96	0
TAP	9	192	7
TAP	9	216	7
BRK	9	264	1
TAP	10	0	2
TAP	10	96	2
TAP	10	96	7
TAP	10	192	1
TAP	10	288	1
TAP	10	288	7
TAP	11	0	2
TAP	11	96	2
TAP	11	96	6
TAP	11	192	3
TAP	11	288	3
TAP	11	288	6
TAP	12	0	5
TAP	12	96	0
TAP	12	96	5
TAP	12	192	6
TAP	12	288	0
TAP	12	288	6
TAP	13	0	5
TAP	13	96	1
TAP	13	96	5
TAP	13	192	4
BRK	13	240	3
TAP	13	240	5
TAP	14	0	5
TAP	14	96	0
TAP	14	96	5
TAP	14	192	6
TAP	14	288	0
TAP	14	288	6
TAP	15	0	5
TAP	15	96	1
TAP	15	96	5
TAP	15	192	4
TAP	15	288	1
TAP	15	288	4
TAP	16	0	2
TAP	16	96	2
TAP	16	96	7
TAP	16	192	1
TAP	16	288	1
TAP	16	288	7
TAP	17	0	2
TAP	17	96	2
TAP	17	96	6
TAP	17	192	3
TAP	17	240	3
TAP	17	288	3
TAP	17	288	4
TAP	18	96	0
TAP	18	192	2
TAP	18	288	0
TAP	19	0	6
TAP	19	96	6
TAP	19	96	7
TAP	19	192	1
TAP	19	288	0
TAP	19	288	1
TAP	20	96	7
TAP	20	192	5
TAP	20	288	7
TAP	21	0	1
TAP	21	96	1
TAP	21	96	6
TAP	21	240	0
TAP	21	240	5
TAP	21	288	1
TAP	21	288	6
TAP	22	96	6
TAP	22	192	4
TAP	22	288	6
TAP	23	0	2
TAP	23	96	2
TAP	23	96	3
TAP	23	192	5
TAP	23	288	4
TAP	23	288	5
TAP	24	96	1
TAP	24	192	3
TAP	24	288	1
TAP	25	0	5
TAP	25	96	2
TAP	25	96	5
TAP	25	240	3
TAP	25	240	6
TAP	25	288	1
STR	25	288	4
SI_	25	288	4	96	288	1
TAP	27	0	3
TAP	27	0	6
TAP	27	72	0
TAP	27	72	4
TAP	27	144	2
BRK	27	144	7
STR	27	288	3
SI_	27	288	3	96	288	6
TAP	29	0	0
TAP	29	0	5
TAP	29	72	2
TAP	29	72	6
TAP	29	144	1
HLD	29	144	4	144
HLD	30	0	0	48
TAP	30	72	0
HLD	30	144	7	48
TAP	30	216	7
BRK	30	288	1
BRK	30	336	6
TAP	31	288	1
TAP	32	96	1
HLD	32	288	1	672
TAP	33	0	0
TAP	33	48	7
TAP	33	120	6
TAP	33	192	5
TAP	33	264	4
TAP	33	336	3
TAP	34	0	2
TAP	35	0	3
HLD	35	0	4	384
TAP	35	96	5
TAP	35	192	3
TAP	35	288	5
HLD	36	0	3	384
TAP	36	96	2
TAP	36	192	4
TAP	36	288	2
HLD	37	0	4	192
TAP	37	96	5
TAP	37	192	3
TAP	37	288	3
TAP	37	336	4
TAP	38	0	5
TAP	38	48	6
TAP	38	96	7
TAP	38	144	0
HLD	39	0	1	96
HLD	39	0	3	96
HLD	39	144	4	96
HLD	39	144	6	96
TAP	39	288	2
TAP	39	288	5
TAP	40	0	3
HLD	40	0	4	384
TAP	40	96	5
TAP	40	192	3
TAP	40	288	5
HLD	41	0	3	192
TAP	41	96	2
TAP	41	192	4
TAP	41	288	4
TAP	41	336	3
TAP	42	0	2
TAP	42	48	1
TAP	42	96	0
TAP	42	144	7
TAP	42	240	1
TAP	42	312	1
HLD	43	0	1	96
HLD	43	96	7	96
HLD	43	192	5	96
HLD	43	288	3	96
TAP	45	0	7
TAP	45	24	0
TAP	45	48	7
TAP	45	72	0
HLD	45	96	7	576
TAP	46	0	0
TAP	46	96	6
TAP	46	192	6
TAP	46	288	0
HLD	47	0	7	384
HLD	48	0	1	192
HLD	48	192	6	96
HLD	49	0	0	96
TAP	49	0	7
TAP	49	96	1
TAP	49	192	0
HLD	49	192	7	96
TAP	49	288	6
HLD	50	0	0	96
TAP	50	0	7
TAP	50	96	1
TAP	50	192	0
HLD	50	192	7	96
TAP	50	288	6
HLD	51	0	0	96
TAP	51	120	7
TAP	51	144	1
HLD	51	192	7	96
TAP	51	312	0
TAP	51	336	6
TAP	52	0	7
TAP	52	96	7
TAP	52	192	0
TAP	52	216	0
TAP	52	264	6

T_REC_TAP	180
T_REC_BRK	5
T_REC_XTP	0
T_REC_HLD	34
T_REC_XHO	0
T_REC_STR	2
T_REC_BST	0
T_REC_XST	0
T_REC_TTP	0
T_REC_THO	0
T_REC_SLD	2
T_REC_ALL	223
T_NUM_TAP	182
T_NUM_BRK	5
T_NUM_HLD	34
T_NUM_SLD	2
T_NUM_ALL	223
T_JUDGE_TAP	187
T_JUDGE_HLD	151
T_JUDGE_SLD	2
T_JUDGE_ALL	340
TTM_EACHPAIRS	42
TTM_SCR_TAP	91000
TTM_SCR_BRK	13000
TTM_SCR_HLD	34000
TTM_SCR_SLD	3000
TTM_SCR_ALL	141000
TTM_SCR_S	136300
TTM_SCR_SS	140500
TTM_RAT_ACV	10035

