VERSION	0.00.00	1.03.00
FES_MODE	0
BPM_DEF	125.000	125.000	125.000	125.000
MET_DEF	4	4
RESOLUTION	384
CLK_DEF	384
COMPATIBLE_CODE	MA2

BPM	0	0	125.000
MET	0	0	4	4

HLD	2	0	0	288
TAP	3	0	7
TAP	3	96	6
TAP	3	192	6
TAP	3	288	7
HLD	4	0	0	288
HLD	5	0	7	96
HLD	5	192	0	96
HLD	6	0	7	384
TAP	6	96	1
TAP	6	192	1
TAP	6	288	1
TAP	7	96	3
TAP	7	192	3
TAP	7	288	2
HLD	8	0	0	96
TAP	8	144	0
HLD	8	192	7	96
TAP	8	336	7
TAP	9	0	0
TAP	9	96	0
TAP	9	192	0
TAP	9	240	7
TAP	9	288	1
TAP	10	96	2
TAP	10	192	3
TAP	10	288	2
TAP	11	0	1
TAP	11	96	1
TAP	11	192	3
TAP	11	288	4
TAP	12	96	5
TAP	12	192	4
TAP	12	288	5
TAP	13	0	6
TAP	13	96	6
TAP	13	192	4
BRK	13	240	3
TAP	14	96	6
TAP	14	192	7
TAP	14	288	6
TAP	15	0	2
TAP	15	96	2
TAP	15	192	3
TAP	15	288	4
TAP	16	96	1
TAP	16	192	0
TAP	16	288	1
TAP	17	0	5
TAP	17	96	5
TAP	17	192	6
TAP	17	240	6
TAP	17	288	1
TAP	18	96	3
TAP	18	288	3
TAP	19	96	1
TAP	19	192	2
TAP	19	288	1
TAP	20	96	4
TAP	20	288	4
TAP	21	0	6
TAP	21	96	6
TAP	21	240	7
HLD	21	288	5	96
TAP	22	96	4
TAP	22	288	4
TAP	23	96	6
TAP	23	192	5
TAP	23	288	6
TAP	24	96	3
TAP	24	288	3
TAP	25	0	1
TAP	25	96	1
TAP	25	240	0
HLD	25	288	2	96
TAP	26	96	2
TAP	26	288	2
TAP	27	0	7
TAP	27	72	0
HLD	27	144	7	144
TAP	28	96	5
TAP	28	288	5
TAP	29	0	0
TAP	29	72	7
HLD	29	144	0	144
HLD	30	0	1	96
HLD	30	144	7	96
TAP	30	288	1
TAP	30	336	1
HLD	31	0	1	192
TAP	31	288	6
TAP	32	96	6
TAP	32	288	6
TAP	33	0	2
TAP	33	48	2
TAP	33	120	5
TAP	33	192	2
TAP	33	264	5
TAP	33	336	2
HLD	34	0	7	288
TAP	35	0	2
TAP	35	0	4
TAP	35	96	3
TAP	35	96	5
TAP	35	192	2
TAP	35	192	4
TAP	36	0	3
TAP	36	0	5
TAP	36	96	2
TAP	36	96	4
TAP	36	192	3
TAP	36	192	5
TAP	37	0	2
TAP	37	0	4
TAP	37	96	3
TAP	37	96	5
TAP	37	192	2
TAP	37	192	4
STR	37	288	3
SI_	37	288	3	96	192	7
HLD	39	0	0	96
HLD	39	144	5	96
TAP	39	288	1
TAP	40	0	2
TAP	40	0	4
TAP	40	96	3
TAP	40	96	5
TAP	40	192	2
TAP	40	192	4
TAP	41	0	3
TAP	41	0	5
TAP	41	96	2
TAP	41	96	4
TAP	41	192	3
TAP	41	192	5
STR	41	288	4
SI_	41	288	4	96	192	0
TAP	42	240	7
TAP	42	312	7
TAP	43	0	1
TAP	43	96	2
TAP	43	192	3
TAP	43	288	4
TAP	45	0	0
TAP	45	48	0
HLD	45	96	0	288
TAP	46	96	5
TAP	46	192	5
TAP	46	288	6
HLD	47	0	7	384
HLD	48	0	0	192
HLD	49	0	7	96
TAP	49	96	1
HLD	49	192	0	96
TAP	49	288	6
HLD	50	0	7	96
TAP	50	96	1
HLD	50	192	0	96
TAP	50	288	6
HLD	51	0	7	96
TAP	51	144	7
HLD	51	192	0	96
TAP	51	336	0
TAP	52	0	7
TAP	52	96	7
TAP	52	192	7
TAP	52	240	0
TAP	52	288	6

T_REC_TAP	137
T_REC_BRK	1
T_REC_XTP	0
T_REC_HLD	26
T_REC_XHO	0
T_REC_STR	2
T_REC_BST	0
T_REC_XST	0
T_REC_TTP	0
T_REC_THO	0
T_REC_SLD	2
T_REC_ALL	168
T_NUM_TAP	139
T_NUM_BRK	1
T_NUM_HLD	26
T_NUM_SLD	2
T_NUM_ALL	168
T_JUDGE_TAP	140
T_JUDGE_HLD	86
T_JUDGE_SLD	2
T_JUDGE_ALL	228
TTM_EACHPAIRS	15
TTM_SCR_TAP	69500
TTM_SCR_BRK	2600
TTM_SCR_HLD	26000
TTM_SCR_SLD	3000
TTM_SCR_ALL	101100
TTM_SCR_S	98000
TTM_SCR_SS	101000
TTM_RAT_ACV	10009

