VERSION	0.00.00	1.03.00
FES_MODE	0
BPM_DEF	125.000	125.000	125.000	125.000
MET_DEF	4	4
RESOLUTION	384
CLK_DEF	384
COMPATIBLE_CODE	MA2

BPM	0	0	125.000
MET	0	0	4	4

TAP	2	0	6
TAP	3	0	7
TAP	3	192	0
TAP	4	0	1
TAP	5	0	0
TAP	5	192	7
TAP	6	0	6
TAP	6	96	6
TAP	6	192	6
TAP	6	288	6
TAP	7	0	7
TAP	7	192	7
TAP	8	0	0
TAP	8	144	0
TAP	8	192	0
TAP	9	0	1
TAP	9	96	1
HLD	9	192	1	96
TAP	10	96	7
TAP	10	288	7
TAP	11	96	6
TAP	11	288	6
TAP	12	96	0
TAP	12	288	0
TAP	13	96	1
HLD	13	192	1	96
TAP	14	96	0
TAP	14	288	0
TAP	15	96	1
TAP	15	288	1
TAP	16	96	7
TAP	16	288	7
TAP	17	0	6
TAP	17	96	6
HLD	17	192	6	96
TAP	18	0	0
TAP	18	192	0
STR	19	0	0
SI_	19	0	0	96	192	3
TAP	20	96	7
TAP	20	288	7
TAP	21	0	6
TAP	21	96	6
TAP	21	288	1
TAP	22	96	7
TAP	22	288	7
STR	23	0	7
SI_	23	0	7	96	192	4
TAP	24	96	0
TAP	24	288	0
TAP	25	0	1
TAP	25	96	1
TAP	25	240	6
TAP	25	288	6
TAP	26	96	5
TAP	26	288	5
HLD	27	0	4	144
TAP	27	288	3
TAP	28	96	2
TAP	28	288	2
HLD	29	0	3	144
TAP	29	288	4
TAP	30	0	5
TAP	30	144	2
TAP	30	288	5
TAP	30	336	5
TAP	31	288	1
TAP	32	96	1
TAP	32	288	1
STR	33	0	7
SI_	33	0	7	96	193	4
TAP	35	0	6
TAP	35	96	6
TAP	35	192	6
TAP	35	288	6
TAP	36	0	1
TAP	36	96	1
TAP	36	192	1
TAP	36	288	1
TAP	37	0	6
TAP	37	96	6
TAP	37	192	6
TAP	37	288	7
HLD	38	0	0	192
TAP	39	0	7
TAP	39	144	0
TAP	39	288	7
TAP	40	0	6
TAP	40	96	6
TAP	40	192	6
TAP	40	288	6
TAP	41	0	1
TAP	41	96	1
TAP	41	192	1
TAP	41	288	0
HLD	42	0	7	192
TAP	43	0	5
TAP	43	96	4
TAP	43	192	3
TAP	43	288	2
BRK	45	96	7
TAP	46	0	0
TAP	46	192	7
TAP	47	0	0
TAP	47	0	7
TAP	48	0	0
TAP	48	0	7
TAP	48	192	1
TAP	48	192	6
TAP	49	0	0
TAP	49	0	7
TAP	49	192	1
TAP	49	192	6
TAP	50	0	0
TAP	50	0	7
TAP	50	192	1
TAP	50	192	6
TAP	51	0	0
TAP	51	0	7
TAP	51	144	0
TAP	51	144	7
TAP	51	192	0
TAP	51	192	7
TAP	52	0	1
TAP	52	96	1
HLD	52	192	1	96

T_REC_TAP	111
T_REC_BRK	1
T_REC_XTP	0
T_REC_HLD	8
T_REC_XHO	0
T_REC_STR	3
T_REC_BST	0
T_REC_XST	0
T_REC_TTP	0
T_REC_THO	0
T_REC_SLD	3
T_REC_ALL	126
T_NUM_TAP	114
T_NUM_BRK	1
T_NUM_HLD	8
T_NUM_SLD	3
T_NUM_ALL	126
T_JUDGE_TAP	115
T_JUDGE_HLD	22
T_JUDGE_SLD	3
T_JUDGE_ALL	140
TTM_EACHPAIRS	10
TTM_SCR_TAP	57000
TTM_SCR_BRK	2600
TTM_SCR_HLD	8000
TTM_SCR_SLD	4500
TTM_SCR_ALL	72100
TTM_SCR_S	69850
TTM_SCR_SS	72000
TTM_RAT_ACV	10013

