VERSION	0.00.00	1.03.00
FES_MODE	0
BPM_DEF	140.000	140.000	140.000	140.000
MET_DEF	4	4
RESOLUTION	384
CLK_DEF	384
COMPATIBLE_CODE	MA2

BPM	0	0	140.000
MET	0	0	4	4

TAP	1	0	0
TAP	1	96	1
BRK	1	240	7
BRK	1	288	7
TAP	2	0	1
TAP	2	144	1
TAP	2	288	1
TAP	3	48	1
TAP	3	144	6
TAP	3	240	6
TAP	3	288	1
TAP	4	0	1
TAP	4	144	1
TAP	4	288	1
TAP	5	168	7
TAP	5	192	0
TAP	5	216	7
TAP	5	240	0
TAP	5	264	7
TAP	5	288	0
TAP	5	300	1
TAP	5	312	2
TAP	5	324	3
TAP	5	336	7
TAP	5	348	6
TAP	5	360	5
TAP	5	372	4
STR	6	0	1
SI_	6	0	1	96	48	4
TAP	6	24	1
TAP	6	48	0
TAP	6	48	2
TAP	6	96	1
TAP	6	144	6
TAP	6	168	6
TAP	6	192	7
TAP	6	216	7
STR	6	240	0
SI_	6	240	0	96	48	3
TAP	6	240	6
TAP	6	288	6
TAP	6	288	7
TAP	6	336	0
TAP	6	336	7
STR	7	0	5
SI_	7	0	5	96	48	0
TAP	7	24	5
TAP	7	48	3
TAP	7	48	4
TAP	7	96	3
TAP	7	144	1
TAP	7	168	1
TAP	7	192	7
TAP	7	216	7
TAP	7	240	0
TAP	7	240	6
TAP	7	288	7
TAP	7	312	7
TAP	7	336	2
TAP	7	360	2
STR	8	0	6
SI_	8	0	6	96	48	3
TAP	8	24	6
TAP	8	48	5
TAP	8	48	7
TAP	8	96	6
TAP	8	144	1
TAP	8	168	1
TAP	8	192	0
TAP	8	216	0
TAP	8	240	1
STR	8	240	7
SI_	8	240	7	96	48	4
TAP	8	288	0
TAP	8	288	1
TAP	8	336	0
TAP	8	336	7
STR	9	0	2
SI_	9	0	2	96	48	7
TAP	9	24	2
TAP	9	48	3
TAP	9	48	4
TAP	9	96	4
TAP	9	144	6
TAP	9	168	6
STR	9	192	0
SCR	9	192	0	96	48	4
TAP	9	216	0
TAP	9	240	1
TAP	9	240	7
TAP	9	288	4
TAP	9	300	5
TAP	9	312	6
TAP	9	324	7
TAP	9	336	0
STR	10	0	6
SI_	10	0	6	96	48	3
TAP	10	24	6
TAP	10	48	5
TAP	10	48	7
TAP	10	96	6
TAP	10	144	1
TAP	10	168	1
TAP	10	192	0
TAP	10	216	0
TAP	10	240	1
STR	10	240	7
SI_	10	240	7	96	48	4
TAP	10	288	0
TAP	10	288	1
TAP	10	336	0
TAP	10	336	7
STR	11	0	2
SI_	11	0	2	96	48	7
TAP	11	24	2
TAP	11	48	3
TAP	11	48	4
TAP	11	96	4
TAP	11	144	6
TAP	11	168	6
TAP	11	192	0
TAP	11	216	0
TAP	11	240	1
TAP	11	240	7
TAP	11	288	0
TAP	11	312	0
TAP	11	336	5
TAP	11	360	5
STR	12	0	1
SI_	12	0	1	96	48	4
TAP	12	24	1
TAP	12	48	0
TAP	12	48	2
TAP	12	96	0
TAP	12	96	1
TAP	12	144	6
TAP	12	168	6
TAP	12	192	7
TAP	12	216	7
STR	12	240	0
SI_	12	240	0	96	48	3
TAP	12	240	6
TAP	12	288	6
TAP	12	288	7
TAP	12	336	0
TAP	13	0	6
TAP	13	24	6
TAP	13	48	7
TAP	13	72	7
TAP	13	96	0
TAP	13	96	6
TAP	13	144	1
TAP	13	168	1
STR	13	192	0
SCR	13	192	0	96	48	4
TAP	13	216	0
TAP	13	240	1
TAP	13	240	7
TAP	13	288	4
TAP	13	300	5
TAP	13	312	6
TAP	13	324	7
TAP	13	336	0
TAP	14	0	7
TAP	14	48	2
TAP	14	48	4
TAP	14	96	0
TAP	14	144	3
TAP	14	144	5
STR	14	192	7
SI_	14	192	7	96	24	2
STR	14	216	2
SI_	14	216	2	96	24	7
TAP	14	240	0
TAP	14	240	1
TAP	14	288	7
TAP	15	0	0
TAP	15	48	3
TAP	15	48	5
TAP	15	96	7
TAP	15	144	2
TAP	15	144	4
STR	15	192	0
SI_	15	192	0	96	24	5
STR	15	216	5
SI_	15	216	5	96	24	0
TAP	15	240	6
TAP	15	240	7
TAP	15	288	0
TAP	16	48	0
TAP	16	72	1
TAP	16	96	6
TAP	16	120	5
TAP	16	144	1
TAP	16	168	2
STR	16	192	5
SI_	16	192	5	96	24	2
STR	16	216	2
SI_	16	216	2	96	24	5
TAP	16	240	3
TAP	16	240	4
TAP	16	288	5
STR	17	0	0
SCR	17	0	0	96	48	4
STR	17	0	1
SCR	17	0	1	96	48	5
STR	17	48	4
SCR	17	48	4	96	48	0
STR	17	48	5
SCR	17	48	5	96	48	1
TAP	17	96	0
TAP	17	96	1
TAP	17	240	0
TAP	17	252	7
TAP	17	264	0
TAP	17	276	7
TAP	17	288	1
TAP	17	300	2
TAP	17	312	3
TAP	17	336	6
TAP	17	348	5
TAP	17	360	4
TAP	18	0	7
TAP	18	48	2
TAP	18	48	4
TAP	18	96	7
STR	18	144	2
SV_	18	144	2	96	48	7
STR	18	144	4
SV_	18	144	4	96	48	7
TAP	18	192	7
TAP	18	240	2
TAP	18	240	4
TAP	18	288	6
TAP	18	336	2
TAP	18	336	4
TAP	19	0	0
TAP	19	48	3
TAP	19	48	5
TAP	19	96	0
STR	19	144	3
SV_	19	144	3	96	48	0
STR	19	144	5
SV_	19	144	5	96	48	0
TAP	19	192	0
TAP	19	240	3
TAP	19	240	5
TAP	19	288	1
TAP	19	336	3
TAP	19	336	5
TAP	20	0	4
TAP	20	48	1
TAP	20	48	7
TAP	20	96	4
STR	20	144	1
SV_	20	144	1	96	48	4
STR	20	144	7
SV_	20	144	7	96	48	4
TAP	20	192	4
TAP	20	240	1
TAP	20	240	7
TAP	20	288	5
TAP	20	336	1
TAP	20	336	7
STR	21	0	0
SI_	21	0	0	96	48	3
TAP	21	0	6
TAP	21	48	7
TAP	21	72	7
TAP	21	96	0
STR	21	96	6
SI_	21	96	6	96	48	3
TAP	21	144	7
TAP	21	168	7
TAP	21	192	0
TAP	21	192	6
BRK	21	240	0
BRK	21	288	0
BRK	21	288	4
TAP	21	300	1
TAP	21	300	5
TAP	21	312	2
TAP	21	312	6
TAP	21	324	3
TAP	21	324	7
TAP	21	336	0
TAP	21	336	4
STR	22	0	4
SCR	22	0	4	96	48	0
STR	22	96	4
SCL	22	96	4	96	48	0
STR	22	192	4
SF_	22	192	4	96	48	0
TAP	22	288	4
STR	23	0	2
SLL	23	0	2	96	48	6
STR	23	96	2
SLR	23	96	2	96	48	6
STR	23	192	2
SF_	23	192	2	96	48	6
TAP	23	288	2
STR	24	0	6
SCL	24	0	6	96	48	2
SLL	24	0	6	96	48	2
STR	24	96	6
SCR	24	96	6	96	48	2
SLR	24	96	6	96	48	2
STR	24	192	6
SF_	24	192	6	96	48	2
TAP	24	288	6
TAP	25	0	0
TAP	25	0	4
TAP	25	72	1
TAP	25	72	5
TAP	25	144	2
TAP	25	144	6
TAP	25	192	3
TAP	25	192	7
TAP	25	240	3
TAP	25	240	7
TAP	25	252	2
TAP	25	252	6
TAP	25	264	1
TAP	25	264	5
TAP	25	276	0
TAP	25	276	4
TAP	25	288	3
TAP	25	288	7
TAP	26	0	1
TAP	26	24	1
TAP	26	48	0
TAP	26	72	0
TAP	26	96	1
TAP	26	96	7
STR	26	144	0
SCL	26	144	0	96	48	6
TAP	26	168	7
STR	26	192	0
SCR	26	192	0	96	48	2
STR	26	240	0
SI_	26	240	0	96	48	4
TAP	26	288	0
TAP	26	336	0
TAP	27	0	2
TAP	27	24	2
TAP	27	48	3
TAP	27	72	3
TAP	27	96	2
TAP	27	96	4
STR	27	144	5
SCR	27	144	5	96	48	7
TAP	27	168	5
STR	27	192	2
SCL	27	192	2	96	48	7
STR	27	240	5
SV_	27	240	5	96	48	0
TAP	27	288	2
TAP	27	336	5
TAP	28	0	3
TAP	28	24	3
TAP	28	48	4
TAP	28	72	4
TAP	28	96	2
TAP	28	96	5
STR	28	144	7
SI_	28	144	7	96	48	3
TAP	28	168	7
STR	28	192	3
SXL	28	192	3	96	48	5
SXR	28	192	3	96	48	1
TAP	28	240	7
TAP	29	0	7
TAP	29	24	0
TAP	29	48	7
TAP	29	72	0
TAP	29	96	6
TAP	29	96	7
TAP	29	144	0
TAP	29	156	1
TAP	29	168	2
TAP	29	180	3
TAP	29	192	4
TAP	29	204	5
TAP	29	216	6
TAP	29	228	7
TAP	29	240	0
TAP	29	252	1
TAP	29	264	2
TAP	29	276	3
TAP	29	288	4
TAP	29	300	5
TAP	29	312	6
TAP	29	324	7
TAP	29	336	0
TAP	29	348	1
TAP	29	360	2
TAP	29	372	3
TAP	30	0	6
TAP	30	24	6
TAP	30	48	7
TAP	30	72	7
TAP	30	96	0
TAP	30	96	6
STR	30	144	7
SCR	30	144	7	96	48	1
TAP	30	168	0
STR	30	192	7
SCL	30	192	7	96	48	5
STR	30	240	7
SI_	30	240	7	96	48	3
TAP	30	288	7
TAP	30	336	7
TAP	31	0	0
TAP	31	24	0
TAP	31	48	7
TAP	31	72	7
TAP	31	96	0
TAP	31	96	6
STR	31	144	7
SCL	31	144	7	96	48	3
SLL	31	144	7	96	48	3
TAP	31	168	7
STR	31	192	3
SCL	31	192	3	96	48	7
SLL	31	192	3	96	48	7
TAP	31	240	7
TAP	32	0	3
TAP	32	24	3
TAP	32	48	2
TAP	32	72	2
TAP	32	96	1
TAP	32	96	3
STR	32	144	2
SCL	32	144	2	96	48	0
TAP	32	168	2
STR	32	192	5
SCR	32	192	5	96	48	0
STR	32	240	2
SV_	32	240	2	96	48	7
TAP	32	288	5
TAP	32	336	2
STR	33	0	5
SCR	33	0	5	96	144	0
TAP	33	96	4
TAP	33	144	3
TAP	33	240	4
TAP	33	288	3
TAP	33	288	7
TAP	33	300	2
TAP	33	300	6
TAP	33	312	1
TAP	33	312	5
TAP	33	324	0
TAP	33	324	4
TAP	33	336	3
TAP	33	336	7
STR	34	0	6
SI_	34	0	6	96	48	2
TAP	34	24	7
TAP	34	48	5
TAP	34	72	0
TAP	34	96	6
TAP	34	144	0
TAP	34	168	0
TAP	34	192	7
TAP	34	216	7
TAP	34	240	1
BRK	34	288	0
BRK	34	288	5
BRK	34	336	6
BRK	34	336	7
STR	35	0	1
SI_	35	0	1	96	48	5
TAP	35	24	0
TAP	35	48	2
TAP	35	72	7
TAP	35	96	1
TAP	35	144	7
TAP	35	168	7
TAP	35	192	0
TAP	35	216	0
TAP	35	240	6
TAP	35	288	0
TAP	35	312	0
TAP	35	336	1
TAP	35	360	2
STR	36	0	6
SI_	36	0	6	96	48	2
TAP	36	24	7
TAP	36	48	5
TAP	36	72	0
TAP	36	96	6
TAP	36	144	0
TAP	36	168	0
TAP	36	192	7
TAP	36	216	7
TAP	36	240	1
TAP	36	288	7
TAP	36	312	7
TAP	36	336	0
TAP	36	336	6
STR	37	0	1
SI_	37	0	1	96	48	4
TAP	37	24	0
TAP	37	48	2
TAP	37	72	7
TAP	37	96	1
STR	37	144	6
SI_	37	144	6	96	48	3
TAP	37	168	7
TAP	37	192	5
TAP	37	216	0
TAP	37	240	6
TAP	37	288	0
TAP	37	312	0
TAP	37	336	1
TAP	37	360	2
TAP	38	0	6
TAP	38	24	1
TAP	38	48	5
TAP	38	72	0
TAP	38	96	4
TAP	38	120	7
TAP	38	144	5
TAP	38	168	0
STR	38	192	6
SCL	38	192	6	96	48	3
TAP	38	216	7
TAP	38	240	6
TAP	38	288	0
TAP	38	312	0
TAP	38	336	1
TAP	38	360	2
TAP	39	0	7
TAP	39	24	2
TAP	39	48	6
TAP	39	72	1
TAP	39	96	5
TAP	39	120	0
TAP	39	144	6
TAP	39	168	1
STR	39	192	7
SCL	39	192	7	96	48	4
TAP	39	216	2
TAP	39	240	7
TAP	39	264	2
TAP	39	288	7
TAP	39	336	2
TAP	40	0	6
TAP	40	24	1
TAP	40	48	5
TAP	40	72	0
TAP	40	96	4
TAP	40	120	7
TAP	40	144	5
TAP	40	168	0
STR	40	192	6
SCL	40	192	6	96	48	3
TAP	40	216	1
TAP	40	240	6
TAP	40	288	0
TAP	40	312	0
TAP	40	336	1
TAP	40	360	2
STR	41	0	6
SI_	41	0	6	96	48	3
TAP	41	24	7
TAP	41	48	5
TAP	41	72	0
TAP	41	96	6
TAP	41	144	1
TAP	41	168	1
STR	41	192	0
SCL	41	192	0	96	48	4
TAP	41	216	0
TAP	41	240	1
TAP	41	288	4
TAP	41	300	3
TAP	41	312	2
TAP	41	324	1
TAP	41	336	0
TAP	42	0	5
STR	42	48	0
SCR	42	48	0	96	48	2
TAP	42	96	7
TAP	42	120	6
STR	42	144	0
SCL	42	144	0	96	48	5
TAP	42	192	7
STR	42	216	4
SI_	42	216	4	96	48	0
TAP	42	240	0
TAP	42	288	3
TAP	42	312	4
TAP	43	0	2
STR	43	48	7
SCL	43	48	7	96	48	5
TAP	43	96	0
TAP	43	120	1
STR	43	144	7
SCR	43	144	7	96	48	2
TAP	43	192	0
STR	43	216	3
SI_	43	216	3	96	48	7
TAP	43	240	7
TAP	43	288	4
TAP	43	312	3
TAP	44	0	4
STR	44	48	7
SCR	44	48	7	96	48	1
TAP	44	96	6
TAP	44	120	5
STR	44	144	7
SCL	44	144	7	96	48	4
TAP	44	192	6
STR	44	216	3
SI_	44	216	3	96	48	7
TAP	44	240	7
TAP	44	288	2
TAP	44	312	3
TAP	45	0	6
TAP	45	24	7
TAP	45	48	0
TAP	45	48	5
TAP	45	96	0
TAP	45	120	1
TAP	45	120	7
TAP	45	168	6
TAP	45	192	0
TAP	45	204	1
TAP	45	216	2
TAP	45	228	3
TAP	45	240	0
TAP	45	252	1
TAP	45	264	2
TAP	45	276	3
TAP	45	288	7
TAP	45	300	6
TAP	45	312	5
TAP	45	324	4
TAP	45	336	7
TAP	45	348	6
TAP	45	360	5
TAP	45	372	4
TAP	46	0	2
STR	46	48	7
SCL	46	48	7	96	48	5
TAP	46	96	0
TAP	46	120	1
STR	46	144	7
SCR	46	144	7	96	48	2
TAP	46	192	0
STR	46	216	3
SF_	46	216	3	96	48	7
TAP	46	240	7
TAP	46	288	4
TAP	46	312	3
TAP	47	0	5
STR	47	48	0
SCR	47	48	0	96	48	2
TAP	47	96	7
TAP	47	120	6
STR	47	144	0
SCL	47	144	0	96	48	5
TAP	47	192	7
STR	47	216	4
SF_	47	216	4	96	48	0
TAP	47	240	0
TAP	47	288	3
TAP	47	312	4
TAP	48	0	2
STR	48	48	0
SCL	48	48	0	96	48	6
TAP	48	96	1
TAP	48	120	2
STR	48	144	0
SCR	48	144	0	96	48	3
TAP	48	192	1
STR	48	216	4
SF_	48	216	4	96	48	0
TAP	48	240	0
TAP	48	288	5
TAP	48	312	4
TAP	49	0	2
TAP	49	0	6
TAP	49	72	2
TAP	49	72	6
TAP	49	144	1
TAP	49	144	5
TAP	49	192	1
TAP	49	192	5
TAP	49	288	7
TAP	49	312	0
TAP	49	336	0
TAP	49	336	7
STR	50	0	6
SI_	50	0	6	96	48	4
TAP	50	48	5
TAP	50	48	7
TAP	50	96	7
TAP	50	120	7
TAP	50	168	2
BRK	50	192	7
TAP	50	204	0
TAP	50	216	1
TAP	50	228	2
TAP	50	240	3
TAP	50	252	4
BRK	50	264	0
TAP	50	276	7
TAP	50	288	6
TAP	50	300	5
TAP	50	312	4
TAP	50	324	3
BRK	50	336	7
TAP	50	348	6
TAP	50	360	5
TAP	50	372	4
STR	51	0	1
SI_	51	0	1	96	48	3
TAP	51	48	0
TAP	51	48	2
TAP	51	96	0
TAP	51	120	0
TAP	51	168	5
BRK	51	192	0
TAP	51	204	7
TAP	51	216	6
TAP	51	228	5
TAP	51	240	4
TAP	51	252	3
BRK	51	264	7
TAP	51	276	0
TAP	51	288	1
TAP	51	300	2
TAP	51	312	3
TAP	51	324	4
BRK	51	336	0
TAP	51	348	1
TAP	51	360	2
TAP	51	372	3
STR	52	0	6
SI_	52	0	6	96	48	4
TAP	52	48	5
TAP	52	48	7
TAP	52	96	7
TAP	52	120	7
TAP	52	168	2
TAP	52	192	7
TAP	52	204	0
TAP	52	216	1
TAP	52	228	2
TAP	52	240	3
TAP	52	252	4
TAP	52	264	0
TAP	52	276	7
TAP	52	288	6
TAP	52	300	5
TAP	52	312	4
TAP	52	324	3
TAP	52	336	7
TAP	52	348	6
TAP	52	360	5
TAP	52	372	4
STR	53	0	1
SI_	53	0	1	96	48	3
TAP	53	48	0
TAP	53	48	2
TAP	53	96	0
TAP	53	120	0
TAP	53	168	5
TAP	53	192	2
TAP	53	240	2
TAP	53	264	6
TAP	53	312	0
TAP	53	312	4
TAP	53	324	1
TAP	53	324	5
TAP	53	336	2
TAP	53	336	6
TAP	53	348	3
TAP	53	348	7
TAP	53	360	0
TAP	53	360	4
STR	54	0	1
SI_	54	0	1	96	48	3
TAP	54	48	0
TAP	54	48	2
TAP	54	96	0
TAP	54	120	0
TAP	54	168	5
TAP	54	192	1
TAP	54	204	2
TAP	54	216	3
TAP	54	228	4
TAP	54	240	0
TAP	54	252	1
TAP	54	264	2
TAP	54	276	3
TAP	54	288	7
TAP	54	300	0
TAP	54	312	1
TAP	54	324	2
TAP	54	336	6
TAP	54	348	7
TAP	54	360	0
TAP	54	372	1
STR	55	0	6
SI_	55	0	6	96	48	4
TAP	55	48	5
TAP	55	48	7
TAP	55	96	7
TAP	55	120	7
TAP	55	168	2
TAP	55	192	6
TAP	55	204	5
TAP	55	216	4
TAP	55	228	3
TAP	55	240	7
TAP	55	252	6
TAP	55	264	5
TAP	55	276	4
TAP	55	288	0
TAP	55	300	7
TAP	55	312	6
TAP	55	324	5
TAP	55	336	1
TAP	55	348	0
TAP	55	360	7
TAP	55	372	6
STR	56	0	0
SI_	56	0	0	96	48	2
TAP	56	48	1
TAP	56	48	7
TAP	56	96	7
TAP	56	120	7
TAP	56	168	5
TAP	56	192	0
TAP	56	204	1
TAP	56	216	2
TAP	56	228	3
TAP	56	240	7
TAP	56	252	0
TAP	56	264	1
TAP	56	276	2
TAP	56	288	6
TAP	56	300	7
TAP	56	312	0
TAP	56	324	1
TAP	56	336	5
TAP	56	348	6
TAP	56	360	7
TAP	56	372	0
TAP	57	0	1
TAP	57	48	3
TAP	57	72	4
TAP	57	96	2
TAP	57	96	5
TAP	57	144	0
TAP	57	192	1
TAP	57	216	0
TAP	57	240	1
TAP	57	240	7
TAP	57	288	2
TAP	57	288	6
TAP	57	300	3
TAP	57	300	7
TAP	57	312	0
TAP	57	312	4
TAP	57	324	1
TAP	57	324	5
TAP	57	336	2
TAP	57	336	6
TAP	58	0	1
TAP	58	144	1
TAP	58	288	1
TAP	59	48	1
TAP	59	144	6
TAP	59	240	6
TAP	59	288	1

T_REC_TAP	676
T_REC_BRK	15
T_REC_XTP	0
T_REC_HLD	0
T_REC_XHO	0
T_REC_STR	92
T_REC_BST	0
T_REC_XST	0
T_REC_TTP	0
T_REC_THO	0
T_REC_SLD	97
T_REC_ALL	880
T_NUM_TAP	768
T_NUM_BRK	15
T_NUM_HLD	0
T_NUM_SLD	97
T_NUM_ALL	880
T_JUDGE_TAP	783
T_JUDGE_HLD	0
T_JUDGE_SLD	97
T_JUDGE_ALL	880
TTM_EACHPAIRS	104
TTM_SCR_TAP	384000
TTM_SCR_BRK	39000
TTM_SCR_HLD	0
TTM_SCR_SLD	145500
TTM_SCR_ALL	568500
TTM_SCR_S	550000
TTM_SCR_SS	567000
TTM_RAT_ACV	10026

