VERSION	0.00.00	1.03.00
FES_MODE	0
BPM_DEF	140.000	140.000	140.000	140.000
MET_DEF	4	4
RESOLUTION	384
CLK_DEF	384
COMPATIBLE_CODE	MA2

BPM	0	0	140.000
MET	0	0	4	4

TAP	2	96	2
TAP	2	288	2
TAP	3	96	2
TAP	3	288	2
TAP	4	96	2
STR	4	288	1
SI_	4	288	1	96	288	6
HLD	4	288	2	384
TAP	6	0	5
TAP	6	24	5
TAP	6	96	6
TAP	6	144	5
TAP	6	168	5
TAP	6	240	4
TAP	6	288	5
TAP	6	312	5
TAP	7	0	6
TAP	7	48	5
TAP	7	72	5
TAP	7	144	4
TAP	7	240	5
TAP	7	288	5
TAP	7	288	6
TAP	8	0	2
TAP	8	24	2
TAP	8	96	1
TAP	8	144	2
TAP	8	168	2
TAP	8	240	3
TAP	8	288	2
TAP	8	312	2
TAP	9	0	1
TAP	9	48	2
TAP	9	72	2
TAP	9	144	3
TAP	9	240	1
TAP	9	288	0
TAP	9	288	7
TAP	10	0	5
TAP	10	24	5
TAP	10	96	6
TAP	10	144	5
TAP	10	168	5
TAP	10	240	4
TAP	10	288	5
TAP	10	312	5
TAP	11	0	6
TAP	11	48	5
TAP	11	72	5
TAP	11	144	4
TAP	11	240	5
TAP	11	288	5
TAP	11	288	6
TAP	12	0	2
TAP	12	24	2
TAP	12	96	1
TAP	12	144	2
TAP	12	168	2
TAP	12	240	3
TAP	12	288	2
TAP	12	312	2
TAP	13	0	1
TAP	13	48	2
TAP	13	96	3
TAP	13	144	5
TAP	13	192	4
TAP	13	240	3
TAP	13	288	7
TAP	14	0	5
TAP	14	48	7
TAP	14	96	6
TAP	14	144	7
HLD	14	192	4	144
TAP	14	264	1
TAP	14	312	1
TAP	15	0	2
TAP	15	48	0
TAP	15	96	1
TAP	15	144	0
HLD	15	192	3	144
TAP	15	264	6
TAP	15	312	6
TAP	16	0	0
TAP	16	48	6
TAP	16	96	7
TAP	16	144	6
HLD	16	192	2	144
TAP	16	264	0
TAP	16	312	7
TAP	17	0	6
TAP	17	48	6
TAP	17	96	6
TAP	17	144	6
TAP	17	240	0
TAP	17	288	1
TAP	17	336	2
TAP	18	0	3
TAP	18	96	3
TAP	18	96	7
TAP	18	144	4
TAP	18	192	5
TAP	18	240	2
TAP	18	240	6
TAP	18	336	5
TAP	19	0	5
TAP	19	96	0
TAP	19	96	4
TAP	19	144	3
TAP	19	192	2
TAP	19	240	1
TAP	19	240	5
TAP	19	336	2
TAP	20	0	2
TAP	20	96	3
TAP	20	96	7
TAP	20	144	4
TAP	20	192	5
TAP	20	240	2
TAP	20	240	6
TAP	20	336	1
TAP	21	0	7
TAP	21	72	7
TAP	21	96	0
TAP	21	168	0
TAP	21	240	0
TAP	21	240	7
TAP	21	288	3
TAP	21	288	4
HLD	22	0	1	96
HLD	22	96	0	96
HLD	22	192	7	96
HLD	22	288	6	96
HLD	23	0	5	96
HLD	23	96	4	96
HLD	23	192	3	96
HLD	23	288	2	96
HLD	24	0	1	96
HLD	24	96	0	96
HLD	24	192	7	96
HLD	24	288	6	96
TAP	25	0	4
TAP	25	72	2
TAP	25	144	0
TAP	25	192	6
BRK	25	240	7
STR	26	0	0
SI_	26	0	0	96	96	3
STR	26	144	7
SI_	26	144	7	96	96	4
STR	27	0	1
SI_	27	0	1	96	96	4
STR	27	144	0
SI_	27	144	0	96	96	5
STR	28	0	6
SI_	28	0	6	96	96	3
STR	28	144	7
SI_	28	144	7	96	96	2
STR	29	0	0
SI_	29	0	0	96	97	3
STR	29	144	1
SI_	29	144	1	96	97	6
STR	30	0	7
SI_	30	0	7	96	96	4
STR	30	144	0
SI_	30	144	0	96	96	3
STR	31	0	5
SI_	31	0	5	96	96	2
STR	31	144	6
SI_	31	144	6	96	96	1
STR	32	0	7
SI_	32	0	7	96	96	2
STR	32	144	6
SI_	32	144	6	96	96	3
STR	33	0	1
SI_	33	0	1	96	96	4
STR	33	144	6
SI_	33	144	6	96	96	3
TAP	34	96	1
TAP	34	144	0
TAP	34	168	1
TAP	34	216	1
TAP	34	240	5
TAP	34	288	6
TAP	34	288	7
TAP	34	336	1
TAP	34	336	6
TAP	35	96	7
TAP	35	144	6
TAP	35	168	7
TAP	35	216	7
TAP	35	240	3
TAP	35	288	1
TAP	35	288	2
TAP	35	336	0
TAP	35	336	1
TAP	36	0	0
TAP	36	0	7
TAP	36	96	4
TAP	36	144	5
TAP	36	168	4
TAP	36	216	4
TAP	36	240	0
TAP	36	288	1
TAP	36	288	2
TAP	36	336	2
TAP	36	336	3
TAP	37	0	6
TAP	37	0	7
TAP	37	48	0
TAP	37	48	5
TAP	37	96	3
TAP	37	96	7
TAP	37	144	0
TAP	37	144	1
TAP	37	192	2
TAP	37	192	7
TAP	37	240	0
TAP	37	240	4
TAP	37	288	1
TAP	37	288	6
BRK	37	336	0
BRK	37	336	7
TAP	38	48	6
TAP	38	72	7
TAP	38	96	6
TAP	38	144	1
TAP	38	192	4
TAP	38	240	7
TAP	38	288	0
TAP	38	288	1
TAP	38	336	1
TAP	38	336	2
TAP	39	48	1
TAP	39	72	0
TAP	39	96	1
TAP	39	144	6
TAP	39	192	3
TAP	39	240	0
TAP	39	288	6
TAP	39	288	7
TAP	39	336	5
TAP	39	336	6
TAP	40	48	2
TAP	40	72	3
TAP	40	96	2
TAP	40	144	6
TAP	40	192	4
TAP	40	216	5
TAP	40	240	4
TAP	40	288	2
TAP	40	288	3
TAP	40	336	1
TAP	40	336	6
HLD	41	0	4	240
HLD	41	144	0	96
BRK	41	288	2
BRK	41	288	6
TAP	42	96	0
TAP	42	96	4
TAP	42	192	1
TAP	42	216	2
TAP	42	240	1
TAP	42	288	3
TAP	42	312	2
TAP	43	96	3
TAP	43	96	7
TAP	43	192	6
TAP	43	216	5
TAP	43	240	6
TAP	43	288	4
TAP	43	312	5
TAP	44	96	1
TAP	44	96	6
TAP	44	192	2
TAP	44	216	3
TAP	44	240	2
TAP	44	288	5
TAP	44	312	4
HLD	45	0	0	384
TAP	45	48	6
TAP	45	120	5
TAP	45	192	4
TAP	45	264	3
TAP	45	336	2
TAP	46	96	2
TAP	46	96	7
TAP	46	192	5
TAP	46	216	3
TAP	46	240	5
TAP	46	264	4
TAP	46	312	2
TAP	46	336	3
TAP	47	96	0
TAP	47	96	5
TAP	47	192	2
TAP	47	216	4
TAP	47	240	2
TAP	47	264	3
TAP	47	312	5
TAP	47	336	4
TAP	48	96	3
TAP	48	96	7
TAP	48	192	2
TAP	48	216	4
TAP	48	240	2
TAP	48	264	3
TAP	48	312	6
TAP	48	336	5
TAP	49	0	0
TAP	49	0	4
TAP	49	72	3
TAP	49	72	7
TAP	49	144	0
TAP	49	144	4
TAP	49	192	2
TAP	49	192	6
HLD	50	96	0	144
TAP	50	144	2
TAP	50	192	4
HLD	50	240	6	144
TAP	50	288	4
TAP	50	336	2
HLD	51	96	7	144
TAP	51	144	5
TAP	51	192	3
HLD	51	240	1	144
TAP	51	288	3
TAP	51	336	5
HLD	52	96	6	144
TAP	52	144	4
TAP	52	192	2
HLD	52	240	0	144
TAP	52	288	2
TAP	52	336	4
TAP	53	0	6
TAP	53	96	0
TAP	53	120	1
TAP	53	144	0
TAP	53	192	7
TAP	53	240	6
TAP	53	264	5
BRK	53	312	6
TAP	54	0	7
TAP	54	48	0
TAP	54	48	1
TAP	54	96	2
TAP	54	120	3
TAP	54	144	2
TAP	54	192	1
TAP	54	240	0
HLD	54	264	7	120
TAP	54	312	6
TAP	55	0	0
TAP	55	48	6
TAP	55	48	7
TAP	55	96	5
TAP	55	120	4
TAP	55	144	5
TAP	55	192	6
TAP	55	240	7
HLD	55	264	0	120
TAP	55	312	1
TAP	56	0	7
TAP	56	48	0
TAP	56	48	1
TAP	56	96	2
TAP	56	120	3
TAP	56	144	2
TAP	56	192	1
TAP	56	240	0
HLD	56	264	7	120
TAP	56	312	6
TAP	57	48	6
TAP	57	72	7
TAP	57	96	0
TAP	57	144	1
TAP	57	192	2
TAP	57	216	3
TAP	57	240	2
BRK	57	288	1

T_REC_TAP	311
T_REC_BRK	7
T_REC_XTP	0
T_REC_HLD	28
T_REC_XHO	0
T_REC_STR	17
T_REC_BST	0
T_REC_XST	0
T_REC_TTP	0
T_REC_THO	0
T_REC_SLD	17
T_REC_ALL	380
T_NUM_TAP	328
T_NUM_BRK	7
T_NUM_HLD	28
T_NUM_SLD	17
T_NUM_ALL	380
T_JUDGE_TAP	335
T_JUDGE_HLD	83
T_JUDGE_SLD	17
T_JUDGE_ALL	435
TTM_EACHPAIRS	47
TTM_SCR_TAP	164000
TTM_SCR_BRK	18200
TTM_SCR_HLD	28000
TTM_SCR_SLD	25500
TTM_SCR_ALL	235700
TTM_SCR_S	227950
TTM_SCR_SS	235000
TTM_RAT_ACV	10029

