VERSION	0.00.00	1.03.00
FES_MODE	0
BPM_DEF	140.000	140.000	140.000	140.000
MET_DEF	4	4
RESOLUTION	384
CLK_DEF	384
COMPATIBLE_CODE	MA2

BPM	0	0	140.000
MET	0	0	4	4

TAP	2	0	1
TAP	2	144	1
TAP	2	288	1
TAP	3	48	1
HLD	3	144	1	144
TAP	4	0	6
TAP	4	144	6
TAP	4	288	6
STR	5	0	6
SI_	5	0	6	96	192	2
TAP	6	0	1
TAP	6	96	1
TAP	6	144	3
TAP	6	240	3
TAP	6	288	1
TAP	7	0	1
TAP	7	48	3
TAP	7	144	3
TAP	7	144	7
TAP	7	240	7
TAP	7	288	6
TAP	8	0	6
TAP	8	96	6
TAP	8	144	4
TAP	8	240	4
TAP	8	288	6
TAP	9	0	6
TAP	9	48	4
TAP	9	144	0
TAP	9	144	4
TAP	9	240	0
TAP	9	288	1
TAP	10	0	1
TAP	10	96	1
TAP	10	144	3
TAP	10	240	3
TAP	10	288	1
TAP	11	0	1
TAP	11	48	3
TAP	11	144	3
TAP	11	144	7
TAP	11	240	7
TAP	11	288	6
TAP	12	0	6
TAP	12	96	6
TAP	12	144	4
TAP	12	240	4
TAP	12	288	6
TAP	13	0	6
TAP	13	144	1
TAP	13	288	1
TAP	13	288	6
TAP	14	0	3
TAP	14	96	0
TAP	14	96	7
TAP	14	192	2
TAP	14	264	6
TAP	14	312	6
TAP	15	0	4
TAP	15	96	0
TAP	15	96	7
TAP	15	192	5
TAP	15	264	1
TAP	15	312	1
TAP	16	0	3
TAP	16	96	0
TAP	16	96	7
TAP	16	192	2
TAP	16	264	6
TAP	16	312	6
TAP	17	0	0
TAP	17	48	0
TAP	17	96	0
TAP	17	144	0
TAP	17	240	2
TAP	17	288	3
TAP	17	336	4
TAP	18	0	5
TAP	18	96	1
TAP	18	96	6
TAP	18	192	2
TAP	18	264	0
TAP	18	312	7
TAP	19	0	4
TAP	19	96	1
TAP	19	96	6
TAP	19	192	5
TAP	19	264	7
TAP	19	312	0
TAP	20	0	5
TAP	20	96	1
TAP	20	96	6
TAP	20	192	2
TAP	20	264	0
TAP	20	312	7
TAP	21	0	2
TAP	21	48	2
TAP	21	96	5
TAP	21	144	5
TAP	21	240	0
BRK	21	288	4
TAP	22	0	6
TAP	22	96	6
TAP	22	192	6
TAP	22	288	6
TAP	23	0	2
TAP	23	96	2
TAP	23	192	2
TAP	23	288	2
TAP	24	0	7
TAP	24	96	7
TAP	24	192	7
TAP	24	288	7
TAP	25	0	4
TAP	25	72	4
TAP	25	144	2
TAP	25	192	5
TAP	25	240	3
TAP	25	240	4
TAP	26	0	1
TAP	26	0	5
TAP	26	144	2
TAP	26	144	6
TAP	26	240	0
TAP	26	288	1
TAP	26	288	7
TAP	27	0	2
TAP	27	0	6
TAP	27	144	1
TAP	27	144	5
TAP	27	240	7
TAP	27	288	0
TAP	27	288	6
TAP	28	0	1
TAP	28	0	5
TAP	28	144	2
TAP	28	144	6
TAP	28	240	0
TAP	28	288	1
TAP	28	288	7
TAP	29	0	7
TAP	29	96	7
TAP	29	144	0
TAP	29	144	6
TAP	29	240	0
TAP	29	288	1
TAP	29	288	7
TAP	30	0	2
TAP	30	0	6
TAP	30	144	1
TAP	30	144	5
TAP	30	240	3
TAP	30	288	2
TAP	30	288	4
TAP	31	0	1
TAP	31	0	5
TAP	31	144	2
TAP	31	144	6
TAP	31	240	4
TAP	31	288	3
TAP	31	288	5
TAP	32	0	2
TAP	32	0	6
TAP	32	144	1
TAP	32	144	5
TAP	32	240	3
TAP	32	288	2
TAP	32	288	4
TAP	33	0	4
TAP	33	96	4
TAP	33	144	3
TAP	33	144	5
TAP	33	240	3
TAP	33	288	2
TAP	33	288	4
TAP	34	96	1
TAP	34	144	1
TAP	34	192	3
TAP	34	240	3
TAP	34	288	4
TAP	34	336	4
TAP	35	96	6
TAP	35	144	6
TAP	35	192	4
TAP	35	240	4
TAP	35	288	3
TAP	35	336	3
TAP	36	0	2
TAP	36	96	0
TAP	36	144	0
TAP	36	192	7
TAP	36	240	7
TAP	36	288	6
TAP	36	336	6
TAP	37	0	7
TAP	37	48	0
TAP	37	96	1
TAP	37	144	0
TAP	37	192	7
TAP	37	240	6
TAP	37	288	7
TAP	37	336	0
TAP	38	48	2
TAP	38	96	2
TAP	38	144	0
TAP	38	192	0
TAP	38	240	7
TAP	38	288	7
TAP	39	48	5
TAP	39	96	5
TAP	39	144	7
TAP	39	192	7
TAP	39	240	0
TAP	39	288	0
TAP	40	48	2
TAP	40	96	2
TAP	40	144	0
TAP	40	192	0
TAP	40	240	7
TAP	40	288	7
TAP	40	336	5
TAP	41	0	5
TAP	41	144	5
TAP	41	288	1
TAP	41	288	6
TAP	42	96	0
TAP	42	96	4
TAP	42	192	5
TAP	42	264	6
TAP	42	336	7
TAP	43	96	3
TAP	43	96	7
TAP	43	192	2
TAP	43	264	1
TAP	43	336	0
TAP	44	96	0
TAP	44	96	4
TAP	44	192	5
TAP	44	264	6
STR	44	336	7
SI_	44	336	7	96	288	3
TAP	46	96	1
TAP	46	96	5
TAP	46	192	2
TAP	46	264	1
TAP	46	336	0
TAP	47	96	2
TAP	47	96	6
TAP	47	192	5
TAP	47	264	6
TAP	47	336	7
TAP	48	96	1
TAP	48	96	5
TAP	48	192	2
TAP	48	264	1
TAP	48	336	0
TAP	49	0	7
TAP	49	72	6
TAP	49	144	5
TAP	49	192	3
TAP	49	192	4
TAP	49	288	3
TAP	49	288	4
TAP	50	96	0
TAP	50	96	7
TAP	50	192	6
TAP	50	192	7
TAP	50	264	5
TAP	50	264	6
TAP	50	336	4
TAP	50	336	5
TAP	51	96	0
TAP	51	96	7
TAP	51	192	0
TAP	51	192	1
TAP	51	264	1
TAP	51	264	2
TAP	51	336	2
TAP	51	336	3
TAP	52	96	0
TAP	52	96	7
TAP	52	192	6
TAP	52	192	7
TAP	52	264	5
TAP	52	264	6
TAP	52	336	4
TAP	52	336	5
TAP	53	48	3
TAP	53	48	4
TAP	53	96	3
TAP	53	96	4
TAP	53	192	5
TAP	53	288	2
TAP	54	96	0
TAP	54	96	6
TAP	54	192	1
TAP	54	240	1
TAP	54	264	3
TAP	54	312	3
TAP	54	336	2
TAP	55	96	1
TAP	55	96	7
TAP	55	192	6
TAP	55	240	6
TAP	55	264	4
TAP	55	312	4
TAP	55	336	5
TAP	56	96	0
TAP	56	96	6
TAP	56	192	1
TAP	56	240	1
TAP	56	264	3
TAP	56	312	3
TAP	56	336	2
TAP	57	48	6
TAP	57	96	7
TAP	57	144	0
TAP	57	192	1
TAP	57	240	0
TAP	57	264	7
BRK	57	288	6
TAP	58	0	1
TAP	58	144	1
TAP	58	288	1
STR	59	0	1
SI_	59	0	1	96	192	6

T_REC_TAP	317
T_REC_BRK	2
T_REC_XTP	0
T_REC_HLD	1
T_REC_XHO	0
T_REC_STR	3
T_REC_BST	0
T_REC_XST	0
T_REC_TTP	0
T_REC_THO	0
T_REC_SLD	3
T_REC_ALL	326
T_NUM_TAP	320
T_NUM_BRK	2
T_NUM_HLD	1
T_NUM_SLD	3
T_NUM_ALL	326
T_JUDGE_TAP	322
T_JUDGE_HLD	3
T_JUDGE_SLD	3
T_JUDGE_ALL	328
TTM_EACHPAIRS	59
TTM_SCR_TAP	160000
TTM_SCR_BRK	5200
TTM_SCR_HLD	1000
TTM_SCR_SLD	4500
TTM_SCR_ALL	170700
TTM_SCR_S	165400
TTM_SCR_SS	170500
TTM_RAT_ACV	10011

