VERSION	0.00.00	1.03.00
FES_MODE	0
BPM_DEF	140.000	140.000	140.000	140.000
MET_DEF	4	4
RESOLUTION	384
CLK_DEF	384
COMPATIBLE_CODE	MA2

BPM	0	0	140.000
MET	0	0	4	4

STR	5	0	6
SI_	5	0	6	96	192	1
TAP	6	0	0
TAP	6	144	0
TAP	6	288	0
TAP	7	48	0
TAP	7	144	1
TAP	7	144	7
TAP	8	0	7
TAP	8	144	7
TAP	8	288	7
TAP	9	48	7
TAP	9	144	0
TAP	9	144	6
TAP	9	288	1
TAP	10	0	2
TAP	10	144	2
TAP	10	288	2
TAP	11	48	2
TAP	11	144	1
TAP	11	144	3
TAP	12	0	4
TAP	12	144	4
TAP	12	288	4
TAP	13	0	2
TAP	13	144	2
TAP	13	288	0
TAP	13	288	7
TAP	14	0	6
TAP	14	96	6
TAP	14	192	7
TAP	14	240	7
TAP	15	0	1
TAP	15	96	1
TAP	15	192	0
TAP	15	240	0
TAP	16	0	2
TAP	16	96	2
TAP	16	192	3
TAP	16	240	3
TAP	17	0	5
TAP	17	48	5
TAP	17	96	5
TAP	17	144	5
TAP	17	240	1
TAP	17	288	1
TAP	18	96	0
TAP	18	96	6
TAP	18	192	7
TAP	18	240	7
TAP	19	0	7
TAP	19	96	1
TAP	19	96	7
TAP	19	192	0
TAP	19	240	0
TAP	20	0	0
TAP	20	96	0
TAP	20	96	6
TAP	20	192	7
TAP	20	240	7
TAP	21	0	0
TAP	21	0	7
TAP	21	96	0
TAP	21	96	7
TAP	21	240	6
BRK	21	288	1
TAP	22	0	6
TAP	22	96	6
TAP	22	192	6
TAP	22	288	6
TAP	23	0	1
TAP	23	96	1
TAP	23	192	1
TAP	23	288	1
TAP	24	0	6
TAP	24	96	1
TAP	24	96	6
TAP	24	192	6
TAP	24	288	1
TAP	24	288	6
TAP	25	0	6
TAP	25	72	1
TAP	25	144	6
TAP	25	240	0
TAP	25	240	7
TAP	26	0	0
TAP	26	24	6
TAP	26	144	0
TAP	26	168	6
TAP	27	0	7
TAP	27	24	1
TAP	27	144	7
TAP	27	168	1
TAP	28	0	2
TAP	28	24	4
TAP	28	144	2
TAP	28	168	4
TAP	29	0	5
TAP	29	24	3
HLD	29	144	5	144
TAP	30	0	5
TAP	30	24	5
TAP	30	144	5
TAP	30	168	5
TAP	31	0	2
TAP	31	24	2
TAP	31	144	2
TAP	31	168	2
TAP	32	0	7
TAP	32	24	7
TAP	32	144	7
TAP	32	168	7
TAP	33	0	6
TAP	33	144	6
TAP	33	288	2
TAP	33	288	5
HLD	34	96	5	144
HLD	34	240	4	144
HLD	35	96	2	144
HLD	35	240	3	144
HLD	36	96	0	143
HLD	36	240	7	144
TAP	37	0	1
TAP	37	48	1
TAP	37	144	6
TAP	37	192	6
TAP	37	288	1
TAP	37	336	1
HLD	38	96	6	96
TAP	38	192	5
TAP	38	240	5
HLD	39	96	1	96
TAP	39	192	2
TAP	39	240	2
HLD	40	96	7	96
TAP	40	192	0
TAP	40	240	0
TAP	41	0	1
TAP	41	144	1
TAP	41	288	3
TAP	41	288	4
TAP	42	0	2
TAP	42	48	2
STR	42	96	2
SI_	42	96	2	96	96	5
TAP	43	0	6
TAP	43	48	6
STR	43	96	6
SI_	43	96	6	96	96	1
TAP	44	0	2
TAP	44	48	2
STR	44	96	2
SI_	44	96	2	96	96	5
STR	45	0	0
SI_	45	0	0	96	96	3
TAP	46	0	5
TAP	46	48	5
STR	46	96	5
SI_	46	96	5	96	96	2
TAP	47	0	1
TAP	47	48	1
STR	47	96	1
SI_	47	96	1	96	96	6
TAP	48	0	5
TAP	48	48	5
STR	48	96	5
SI_	48	96	5	96	96	2
TAP	49	0	1
TAP	49	72	1
TAP	49	144	1
BRK	49	192	0
TAP	49	192	7
TAP	50	96	0
TAP	50	192	0
TAP	50	192	7
TAP	50	264	7
TAP	50	336	6
TAP	50	336	7
TAP	51	96	7
TAP	51	192	0
TAP	51	192	7
TAP	51	264	0
TAP	51	336	0
TAP	51	336	1
TAP	52	96	1
TAP	52	192	0
TAP	52	192	1
TAP	52	264	1
TAP	52	336	1
TAP	52	336	2
TAP	53	96	3
TAP	53	192	4
TAP	53	240	3
TAP	54	96	5
TAP	54	192	3
TAP	54	192	4
TAP	54	264	2
TAP	54	264	3
TAP	54	336	3
TAP	54	336	4
TAP	55	96	2
TAP	55	192	3
TAP	55	192	4
TAP	55	264	4
TAP	55	264	5
TAP	55	336	3
TAP	55	336	4
TAP	56	96	6
TAP	56	192	6
TAP	56	192	7
TAP	56	264	0
TAP	56	264	7
TAP	56	336	0
TAP	56	336	1
TAP	57	96	1
TAP	57	192	0
TAP	57	192	1
TAP	57	240	0
TAP	57	240	7
TAP	57	288	6
BRK	57	288	7

T_REC_TAP	192
T_REC_BRK	3
T_REC_XTP	0
T_REC_HLD	10
T_REC_XHO	0
T_REC_STR	8
T_REC_BST	0
T_REC_XST	0
T_REC_TTP	0
T_REC_THO	0
T_REC_SLD	8
T_REC_ALL	221
T_NUM_TAP	200
T_NUM_BRK	3
T_NUM_HLD	10
T_NUM_SLD	8
T_NUM_ALL	221
T_JUDGE_TAP	203
T_JUDGE_HLD	27
T_JUDGE_SLD	8
T_JUDGE_ALL	238
TTM_EACHPAIRS	33
TTM_SCR_TAP	100000
TTM_SCR_BRK	7800
TTM_SCR_HLD	10000
TTM_SCR_SLD	12000
TTM_SCR_ALL	129800
TTM_SCR_S	125650
TTM_SCR_SS	129500
TTM_RAT_ACV	10023

