VERSION	0.00.00	1.03.00
FES_MODE	0
BPM_DEF	140.000	140.000	140.000	140.000
MET_DEF	4	4
RESOLUTION	384
CLK_DEF	384
COMPATIBLE_CODE	MA2

BPM	0	0	140.000
MET	0	0	4	4

TAP	6	96	1
TAP	6	288	1
HLD	7	96	1	192
TAP	8	96	6
TAP	8	288	6
TAP	9	96	6
TAP	9	288	0
TAP	9	288	7
TAP	10	96	6
TAP	10	288	6
HLD	11	96	6	192
TAP	12	96	1
TAP	12	288	1
TAP	13	288	1
TAP	13	288	6
TAP	14	0	5
TAP	14	96	5
TAP	14	192	6
TAP	15	0	2
TAP	15	96	2
TAP	15	192	1
TAP	16	0	6
TAP	16	96	6
TAP	16	192	5
TAP	17	0	7
TAP	17	96	7
TAP	18	0	0
TAP	18	96	7
TAP	18	192	6
TAP	19	0	7
TAP	19	96	0
TAP	19	192	1
TAP	20	0	0
TAP	20	96	7
TAP	20	192	6
TAP	21	0	0
TAP	21	0	7
TAP	21	96	0
TAP	21	96	7
TAP	21	288	1
TAP	22	96	2
TAP	22	288	2
TAP	23	96	5
TAP	23	288	5
TAP	24	96	2
TAP	24	288	2
BRK	25	192	5
STR	26	0	6
SI_	26	0	6	96	192	1
TAP	27	240	0
TAP	27	288	7
STR	28	0	6
SI_	28	0	6	96	192	1
TAP	29	288	1
STR	30	0	1
SI_	30	0	1	96	192	6
TAP	31	240	7
TAP	31	288	0
STR	32	0	1
SI_	32	0	1	96	192	6
TAP	33	288	2
TAP	33	288	5
TAP	34	96	3
TAP	34	288	4
TAP	34	336	4
TAP	35	96	3
TAP	35	288	2
TAP	35	336	2
TAP	36	96	1
TAP	36	288	2
TAP	37	0	3
TAP	37	144	4
TAP	37	288	3
TAP	38	96	4
TAP	38	288	3
TAP	38	336	3
TAP	39	96	4
TAP	39	288	5
TAP	39	336	5
TAP	40	96	6
TAP	40	288	5
TAP	40	336	5
TAP	41	288	0
TAP	41	288	7
TAP	42	96	4
TAP	42	96	5
TAP	43	96	2
TAP	43	96	3
TAP	44	96	3
TAP	44	96	4
TAP	45	0	5
TAP	45	96	4
TAP	45	192	3
TAP	45	288	2
TAP	46	96	2
TAP	46	96	3
TAP	47	96	4
TAP	47	96	5
TAP	48	96	3
TAP	48	96	4
TAP	49	0	2
TAP	49	72	2
TAP	49	144	2
TAP	49	192	5
TAP	50	192	0
TAP	50	192	7
TAP	50	264	0
TAP	50	264	7
TAP	50	336	0
TAP	50	336	7
TAP	51	192	0
TAP	51	192	1
TAP	51	264	0
TAP	51	264	1
TAP	51	336	0
TAP	51	336	1
TAP	52	192	6
TAP	52	192	7
TAP	52	264	6
TAP	52	264	7
TAP	52	336	6
TAP	52	336	7
TAP	53	192	3
TAP	53	192	4
TAP	53	288	3
TAP	53	288	4
TAP	54	192	0
TAP	54	240	7
TAP	54	288	0
TAP	54	336	7
TAP	55	192	0
TAP	55	240	1
TAP	55	288	0
TAP	55	336	1
TAP	56	192	7
TAP	56	240	6
TAP	56	288	7
TAP	56	336	6
TAP	57	192	7
TAP	57	240	0
TAP	57	288	7
TAP	57	336	0

T_REC_TAP	131
T_REC_BRK	1
T_REC_XTP	0
T_REC_HLD	2
T_REC_XHO	0
T_REC_STR	4
T_REC_BST	0
T_REC_XST	0
T_REC_TTP	0
T_REC_THO	0
T_REC_SLD	4
T_REC_ALL	142
T_NUM_TAP	135
T_NUM_BRK	1
T_NUM_HLD	2
T_NUM_SLD	4
T_NUM_ALL	142
T_JUDGE_TAP	136
T_JUDGE_HLD	8
T_JUDGE_SLD	4
T_JUDGE_ALL	148
TTM_EACHPAIRS	23
TTM_SCR_TAP	67500
TTM_SCR_BRK	2600
TTM_SCR_HLD	2000
TTM_SCR_SLD	6000
TTM_SCR_ALL	78100
TTM_SCR_S	75700
TTM_SCR_SS	78000
TTM_RAT_ACV	10012

