VERSION	0.00.00	1.03.00
FES_MODE	0
BPM_DEF	135.000	135.000	135.000	135.000
MET_DEF	4	4
RESOLUTION	384
CLK_DEF	384
COMPATIBLE_CODE	MA2

BPM	0	0	135.000
MET	0	0	4	4

HLD	2	0	1	96
TAP	2	192	1
TAP	2	240	2
TAP	2	288	3
TAP	2	336	4
HLD	3	0	5	960
HLD	4	0	6	96
TAP	4	192	6
TAP	4	240	7
TAP	4	288	0
TAP	4	336	1
HLD	5	0	2	480
HLD	6	0	6	480
TAP	6	192	7
TAP	6	288	0
HLD	7	0	1	480
TAP	7	192	2
TAP	7	288	3
HLD	8	0	4	480
TAP	8	192	5
TAP	8	288	6
HLD	9	0	7	288
HLD	9	192	0	288
HLD	10	0	1	864
STR	10	192	0
SCL	10	192	0	96	288	5
HLD	12	0	6	864
STR	12	192	7
SCR	12	192	7	96	288	2
HLD	14	0	7	288
HLD	14	192	0	288
HLD	15	0	1	24
HLD	15	96	7	384
BRK	15	192	6
HLD	16	0	4	288
HLD	16	192	3	288
HLD	17	0	2	672
HLD	17	192	5	480
TAP	19	0	0
TAP	19	0	7
HLD	19	96	2	192
TAP	19	192	3
HLD	19	288	5	192
TAP	20	0	4
HLD	20	96	1	192
TAP	20	192	0
HLD	20	288	6	192
TAP	21	0	7
HLD	21	96	1	192
TAP	21	192	2
HLD	21	288	5	192
TAP	22	0	4
HLD	22	96	2	192
TAP	22	192	3
HLD	22	288	7	384
TAP	23	0	0
TAP	23	96	1
TAP	23	192	2
HLD	23	288	3	384
TAP	24	0	2
TAP	24	96	1
TAP	24	192	0
HLD	24	288	7	384
TAP	25	0	6
TAP	25	96	5
TAP	25	192	4
HLD	25	288	3	384
TAP	26	0	4
TAP	26	96	5
TAP	26	192	6
STR	26	288	7
SCL	26	288	7	96	192	4
STR	27	96	0
SCR	27	96	0	96	192	3
STR	27	288	7
SCL	27	288	7	96	192	4
STR	28	96	0
SI_	28	96	0	96	192	4
STR	28	288	0
SCR	28	288	0	96	192	3
STR	29	96	7
SCL	29	96	7	96	192	4
STR	29	288	0
SCR	29	288	0	96	192	3
STR	30	96	7
SI_	30	96	7	96	192	3
STR	30	288	6
SCR	30	288	6	96	192	1
STR	31	96	2
SI_	31	96	2	96	192	6
STR	31	288	5
SCL	31	288	5	96	192	2
STR	32	96	1
SI_	32	96	1	96	144	5
HLD	32	288	0	192
TAP	33	0	7
HLD	33	96	7	192
TAP	33	192	6
HLD	33	288	6	192
TAP	34	0	5
HLD	34	96	5	192
TAP	34	192	4
STR	34	288	4
SCR	34	288	4	96	192	7
STR	35	96	3
SCL	35	96	3	96	192	0
STR	35	288	4
SCR	35	288	4	96	192	7
STR	36	96	3
SI_	36	96	3	96	192	7
STR	36	288	3
SCL	36	288	3	96	192	0
STR	37	96	4
SCR	37	96	4	96	192	7
STR	37	288	3
SCL	37	288	3	96	192	0
STR	38	96	4
SI_	38	96	4	96	192	0
STR	38	288	5
SCL	38	288	5	96	192	2
STR	39	96	1
SI_	39	96	1	96	192	5
STR	39	288	6
SCR	39	288	6	96	192	1
STR	40	96	2
SI_	40	96	2	96	192	6
STR	40	288	4
SI_	40	288	4	96	192	0
STR	41	96	3
SI_	41	96	3	96	192	7
STR	41	288	4
SCR	41	288	4	96	192	7
STR	42	96	3
SCL	42	96	3	96	192	0
BRK	43	192	0
STR	44	0	2
SCL	44	0	2	96	96	7
STR	44	192	6
SCL	44	192	6	96	96	3
STR	45	0	1
SCR	45	0	1	96	48	4
STR	45	96	0
SCR	45	96	0	96	48	3
STR	45	192	7
SCL	45	192	7	96	48	4
STR	46	0	0
SCR	46	0	0	96	48	3
STR	46	0	7
SCL	46	0	7	96	48	4
STR	46	192	3
SCL	46	192	3	96	48	0
STR	46	192	4
SCR	46	192	4	96	48	7
STR	47	0	2
SCL	47	0	2	96	48	7
STR	47	0	6
SCL	47	0	6	96	48	3
STR	47	192	2
SCR	47	192	2	96	48	5
STR	47	192	6
SCR	47	192	6	96	48	1
HLD	48	0	2	480
HLD	48	192	3	96
HLD	49	0	5	480
HLD	49	192	4	96
HLD	50	0	2	288
HLD	50	192	3	288
HLD	51	0	4	288
HLD	51	192	5	96
STR	52	0	7
SCL	52	0	7	96	192	4
STR	52	192	7
SCR	52	192	7	96	192	2
STR	53	0	7
SI_	53	0	7	96	192	3
STR	54	0	0
SCR	54	0	0	96	192	3
STR	54	192	0
SCL	54	192	0	96	192	5
STR	55	0	0
SI_	55	0	0	96	192	4
HLD	56	0	1	96
HLD	56	0	5	96
HLD	56	192	2	96
HLD	56	192	6	96
STR	57	0	1
SCR	57	0	1	96	48	4
STR	57	0	5
SCR	57	0	5	96	48	0
BRK	57	192	1
BRK	57	192	5
HLD	58	0	0	288
TAP	58	0	4
HLD	58	192	1	288
HLD	59	0	4	288
HLD	59	192	5	288
HLD	60	0	7	192
BRK	60	192	3

T_REC_TAP	40
T_REC_BRK	5
T_REC_XTP	0
T_REC_HLD	51
T_REC_XHO	0
T_REC_STR	51
T_REC_BST	0
T_REC_XST	0
T_REC_TTP	0
T_REC_THO	0
T_REC_SLD	51
T_REC_ALL	198
T_NUM_TAP	91
T_NUM_BRK	5
T_NUM_HLD	51
T_NUM_SLD	51
T_NUM_ALL	198
T_JUDGE_TAP	96
T_JUDGE_HLD	325
T_JUDGE_SLD	51
T_JUDGE_ALL	472
TTM_EACHPAIRS	10
TTM_SCR_TAP	45500
TTM_SCR_BRK	13000
TTM_SCR_HLD	51000
TTM_SCR_SLD	76500
TTM_SCR_ALL	186000
TTM_SCR_S	179950
TTM_SCR_SS	185500
TTM_RAT_ACV	10026

