VERSION	0.00.00	1.03.00
FES_MODE	0
BPM_DEF	135.000	135.000	135.000	135.000
MET_DEF	4	4
RESOLUTION	384
CLK_DEF	384
COMPATIBLE_CODE	MA2

BPM	0	0	135.000
MET	0	0	4	4

HLD	2	0	1	768
TAP	3	0	0
TAP	3	192	7
HLD	4	0	6	768
TAP	5	0	0
TAP	5	192	1
HLD	6	0	2	384
TAP	6	192	3
TAP	6	288	4
HLD	7	0	5	384
TAP	7	192	7
TAP	7	288	0
HLD	8	0	2	384
TAP	8	192	5
TAP	8	288	7
HLD	9	0	0	288
HLD	9	192	7	96
TAP	10	0	2
TAP	10	0	5
TAP	10	192	1
TAP	10	192	6
STR	11	0	0
SI_	11	0	0	96	192	3
STR	11	0	7
SI_	11	0	7	96	192	4
TAP	12	0	2
TAP	12	0	6
TAP	12	192	1
TAP	12	192	5
STR	13	0	0
SCR	13	0	0	96	192	3
STR	13	0	4
SCR	13	0	4	96	192	7
TAP	14	0	1
TAP	14	192	0
TAP	14	288	1
TAP	15	0	2
TAP	15	0	5
TAP	15	96	6
TAP	15	192	0
BRK	15	192	7
HLD	16	0	5	192
HLD	16	192	2	96
TAP	16	288	6
HLD	17	0	1	192
TAP	17	0	5
HLD	17	192	6	480
TAP	18	96	2
TAP	18	288	2
HLD	19	0	2	288
TAP	19	0	5
TAP	19	96	5
TAP	19	192	7
TAP	19	288	7
HLD	20	0	6	288
TAP	20	96	1
TAP	20	192	2
TAP	20	288	3
HLD	21	0	4	288
TAP	21	96	0
TAP	21	288	0
HLD	22	0	7	288
TAP	22	96	3
TAP	22	288	3
STR	23	0	4
SI_	23	0	4	96	288	7
TAP	23	288	1
STR	24	0	6
SI_	24	0	6	96	288	1
TAP	24	288	3
STR	25	0	0
SI_	25	0	0	96	288	3
TAP	25	288	5
STR	26	0	2
SI_	26	0	2	96	288	5
TAP	26	288	7
HLD	27	0	6	96
TAP	27	192	2
TAP	27	264	3
TAP	27	336	4
HLD	28	0	5	96
HLD	28	192	1	96
HLD	29	0	2	96
TAP	29	192	6
TAP	29	264	7
TAP	29	336	0
HLD	30	0	1	96
HLD	30	192	5	96
HLD	31	0	0	96
HLD	31	0	6	96
TAP	31	192	7
TAP	31	264	1
TAP	31	336	5
HLD	32	0	4	96
HLD	32	192	3	96
HLD	33	0	2	96
HLD	33	0	6	96
HLD	33	192	1	96
HLD	33	192	7	96
STR	34	0	0
SCR	34	0	0	96	192	3
STR	34	0	7
SCL	34	0	7	96	192	4
HLD	35	0	5	96
TAP	35	192	3
TAP	35	264	2
TAP	35	336	1
HLD	36	0	7	96
TAP	36	144	3
HLD	36	192	3	96
HLD	37	0	1	96
TAP	37	192	7
TAP	37	264	6
TAP	37	336	5
HLD	38	0	3	96
TAP	38	144	7
HLD	38	192	7	96
HLD	39	0	1	96
HLD	39	0	7	96
TAP	39	192	4
TAP	39	264	5
TAP	39	336	6
HLD	40	0	7	96
HLD	40	192	0	96
HLD	41	0	4	192
TAP	41	96	3
HLD	41	192	2	192
TAP	41	288	5
HLD	42	0	6	192
TAP	42	96	1
HLD	42	192	0	96
TAP	42	288	7
TAP	43	0	3
TAP	43	0	4
BRK	43	192	0
HLD	44	0	1	96
TAP	44	192	2
TAP	44	240	1
TAP	44	288	0
TAP	44	336	7
STR	45	0	6
SCR	45	0	6	96	96	1
HLD	46	0	6	96
TAP	46	192	5
TAP	46	240	6
TAP	46	288	7
TAP	46	336	0
STR	47	0	1
SCL	47	0	1	96	96	6
HLD	48	0	2	480
TAP	48	192	7
TAP	48	288	6
HLD	49	0	5	480
TAP	49	192	0
TAP	49	288	1
HLD	50	0	2	288
HLD	50	192	7	288
HLD	51	0	3	288
HLD	51	192	6	96
HLD	52	0	7	96
STR	52	192	7
SCR	52	192	7	96	96	2
STR	53	0	7
SCL	53	0	7	96	96	4
HLD	53	192	7	96
HLD	54	0	0	96
STR	54	192	0
SCL	54	192	0	96	96	5
STR	55	0	0
SCR	55	0	0	96	96	3
HLD	55	192	0	96
HLD	56	0	5	96
HLD	56	192	2	96
TAP	57	0	5
TAP	57	96	3
TAP	57	96	7
BRK	57	192	1
TAP	57	192	5
HLD	58	0	2	192
HLD	58	192	0	192
HLD	59	0	6	192
HLD	59	192	4	480
TAP	60	0	7
TAP	60	192	3

T_REC_TAP	88
T_REC_BRK	3
T_REC_XTP	0
T_REC_HLD	61
T_REC_XHO	0
T_REC_STR	16
T_REC_BST	0
T_REC_XST	0
T_REC_TTP	0
T_REC_THO	0
T_REC_SLD	16
T_REC_ALL	184
T_NUM_TAP	104
T_NUM_BRK	3
T_NUM_HLD	61
T_NUM_SLD	16
T_NUM_ALL	184
T_JUDGE_TAP	107
T_JUDGE_HLD	248
T_JUDGE_SLD	16
T_JUDGE_ALL	371
TTM_EACHPAIRS	18
TTM_SCR_TAP	52000
TTM_SCR_BRK	7800
TTM_SCR_HLD	61000
TTM_SCR_SLD	24000
TTM_SCR_ALL	144800
TTM_SCR_S	140200
TTM_SCR_SS	144500
TTM_RAT_ACV	10020

