VERSION	0.00.00	1.03.00
FES_MODE	0
BPM_DEF	135.000	135.000	135.000	135.000
MET_DEF	4	4
RESOLUTION	384
CLK_DEF	384
COMPATIBLE_CODE	MA2

BPM	0	0	135.000
MET	0	0	4	4

STR	2	0	0
SI_	2	0	0	96	96	3
TAP	3	0	1
TAP	3	0	6
TAP	3	192	2
TAP	3	192	5
HLD	4	0	1	288
HLD	4	0	6	288
TAP	5	0	1
TAP	5	0	7
TAP	5	192	2
TAP	5	192	6
HLD	6	0	5	384
TAP	6	192	4
TAP	6	288	3
HLD	7	0	2	384
TAP	7	192	1
TAP	7	288	0
HLD	8	0	7	288
TAP	8	192	0
TAP	8	288	1
HLD	9	0	3	96
HLD	9	0	5	96
TAP	9	192	2
TAP	9	192	4
STR	10	0	4
SCL	10	0	4	96	192	1
TAP	10	0	5
TAP	11	0	0
TAP	11	0	6
TAP	11	192	1
TAP	11	192	5
TAP	12	0	2
STR	12	0	3
SCR	12	0	3	96	192	6
TAP	13	0	0
TAP	13	0	7
TAP	13	192	3
TAP	13	192	4
HLD	14	0	3	96
HLD	14	0	4	96
TAP	14	192	2
TAP	14	192	5
TAP	14	288	5
TAP	15	0	6
TAP	15	0	7
TAP	15	96	0
TAP	15	96	6
TAP	15	192	1
TAP	15	192	6
HLD	16	0	2	96
TAP	16	192	1
TAP	16	192	6
TAP	16	288	6
HLD	17	0	5	672
HLD	17	192	2	480
TAP	19	0	6
TAP	19	96	5
TAP	19	192	1
TAP	19	288	0
TAP	19	288	2
TAP	20	0	7
TAP	20	96	5
TAP	20	192	0
TAP	20	288	0
TAP	20	288	2
HLD	21	0	2	576
TAP	21	96	1
TAP	21	288	0
TAP	22	96	7
TAP	22	288	6
TAP	23	0	6
TAP	23	96	0
TAP	23	96	6
TAP	23	192	1
TAP	23	288	1
TAP	23	288	7
TAP	24	0	5
TAP	24	96	3
TAP	24	96	5
TAP	24	192	2
TAP	24	288	2
TAP	24	288	4
TAP	25	96	0
TAP	25	96	6
TAP	25	288	1
TAP	25	288	7
TAP	26	96	4
TAP	26	96	5
TAP	26	288	2
TAP	26	288	3
TAP	27	0	5
TAP	27	96	6
TAP	27	192	0
TAP	27	192	7
STR	28	0	6
SI_	28	0	6	96	96	2
TAP	29	0	2
TAP	29	96	1
TAP	29	192	0
TAP	29	192	7
STR	30	0	1
SI_	30	0	1	96	96	5
TAP	31	0	5
TAP	31	96	1
TAP	31	96	6
TAP	31	192	0
TAP	31	192	7
STR	32	0	0
SCR	32	0	0	96	192	3
HLD	33	0	2	288
HLD	33	192	6	96
STR	34	0	0
SI_	34	0	0	96	96	3
STR	34	0	7
SI_	34	0	7	96	96	4
TAP	35	0	1
TAP	35	0	3
TAP	35	96	2
TAP	35	192	3
TAP	35	192	4
STR	36	0	2
SI_	36	0	2	96	96	6
TAP	37	0	4
TAP	37	0	6
TAP	37	96	5
TAP	37	192	3
TAP	37	192	4
STR	38	0	5
SI_	38	0	5	96	96	1
TAP	39	0	1
TAP	39	0	6
TAP	39	96	2
TAP	39	96	5
TAP	39	192	3
TAP	39	192	4
STR	40	0	4
SCR	40	0	4	96	192	7
HLD	41	0	7	192
HLD	41	192	0	192
HLD	42	0	6	192
HLD	42	192	1	192
TAP	43	192	1
TAP	43	192	6
STR	44	0	5
SI_	44	0	5	96	96	2
STR	44	0	6
SI_	44	0	6	96	96	1
TAP	45	96	5
TAP	45	96	7
TAP	45	288	6
STR	46	0	0
SI_	46	0	0	96	96	3
STR	46	0	7
SI_	46	0	7	96	96	4
TAP	47	96	1
TAP	47	96	3
TAP	47	288	2
HLD	48	96	6	384
TAP	48	288	7
HLD	49	96	1	288
TAP	49	288	0
TAP	50	96	6
TAP	50	96	7
TAP	50	288	0
TAP	50	288	7
TAP	51	96	0
TAP	51	96	1
TAP	51	288	1
TAP	51	288	5
STR	51	383	3
SI_	51	383	3	96	97	0
STR	51	383	4
SI_	51	383	4	96	97	7
TAP	53	96	4
TAP	53	96	6
TAP	53	288	3
TAP	53	288	5
STR	54	0	0
SI_	54	0	0	96	96	3
STR	54	0	7
SI_	54	0	7	96	96	4
TAP	55	96	2
TAP	55	96	6
TAP	55	288	1
TAP	55	288	5
HLD	56	0	7	672
TAP	56	192	0
TAP	57	0	6
HLD	57	192	5	96
STR	58	0	2
SCR	58	0	2	96	192	5
STR	59	0	6
SCR	59	0	6	96	192	1
BRK	60	0	0
BRK	60	0	4
BRK	60	192	2
BRK	60	192	6

T_REC_TAP	129
T_REC_BRK	4
T_REC_XTP	0
T_REC_HLD	23
T_REC_XHO	0
T_REC_STR	21
T_REC_BST	0
T_REC_XST	0
T_REC_TTP	0
T_REC_THO	0
T_REC_SLD	21
T_REC_ALL	198
T_NUM_TAP	150
T_NUM_BRK	4
T_NUM_HLD	23
T_NUM_SLD	21
T_NUM_ALL	198
T_JUDGE_TAP	154
T_JUDGE_HLD	134
T_JUDGE_SLD	21
T_JUDGE_ALL	309
TTM_EACHPAIRS	58
TTM_SCR_TAP	75000
TTM_SCR_BRK	10400
TTM_SCR_HLD	23000
TTM_SCR_SLD	31500
TTM_SCR_ALL	139900
TTM_SCR_S	135350
TTM_SCR_SS	139500
TTM_RAT_ACV	10028

