VERSION	0.00.00	1.03.00
FES_MODE	0
BPM_DEF	135.000	135.000	135.000	135.000
MET_DEF	4	4
RESOLUTION	384
CLK_DEF	384
COMPATIBLE_CODE	MA2

BPM	0	0	135.000
MET	0	0	4	4

HLD	2	0	6	96
TAP	2	192	7
TAP	2	288	0
HLD	3	0	1	192
HLD	4	0	1	96
TAP	4	192	0
TAP	4	288	7
HLD	5	0	6	192
HLD	6	0	4	96
TAP	6	192	3
TAP	6	288	3
TAP	7	0	2
TAP	7	192	1
TAP	7	288	1
TAP	8	0	0
TAP	8	192	7
TAP	8	288	7
HLD	9	0	6	96
HLD	9	192	5	96
HLD	10	0	6	96
TAP	10	192	7
TAP	10	288	0
HLD	11	0	1	192
HLD	12	0	1	96
TAP	12	192	0
TAP	12	288	7
HLD	13	0	6	192
TAP	14	0	4
TAP	14	192	5
TAP	14	288	5
TAP	15	0	6
TAP	15	96	7
TAP	15	192	0
TAP	15	192	7
TAP	16	0	0
TAP	16	192	1
TAP	16	288	1
HLD	17	0	0	672
HLD	17	192	7	480
TAP	19	96	0
TAP	19	288	2
TAP	20	96	4
TAP	20	288	6
TAP	21	96	7
TAP	21	288	6
TAP	22	96	5
TAP	22	288	4
TAP	23	96	3
TAP	23	288	5
TAP	24	96	7
TAP	24	288	1
TAP	25	96	0
TAP	25	288	7
TAP	26	96	6
TAP	26	288	5
STR	27	0	6
SI_	27	0	6	96	192	1
TAP	28	288	1
STR	29	0	1
SI_	29	0	1	96	192	6
TAP	30	288	6
HLD	31	96	6	192
TAP	32	288	6
HLD	33	0	1	96
HLD	33	192	6	96
HLD	34	0	2	96
HLD	34	192	5	96
STR	35	0	6
SI_	35	0	6	96	192	1
TAP	36	288	1
STR	37	0	1
SI_	37	0	1	96	192	6
TAP	38	288	6
HLD	39	96	6	192
TAP	40	288	6
HLD	41	0	7	96
HLD	41	192	6	96
HLD	42	0	5	96
HLD	42	192	4	96
BRK	43	0	4
BRK	43	192	6
HLD	44	0	7	96
TAP	44	192	7
TAP	44	288	0
HLD	45	0	1	288
HLD	46	0	0	96
TAP	46	192	0
TAP	46	288	7
HLD	47	0	6	288
HLD	48	0	4	96
TAP	48	192	3
TAP	48	288	2
TAP	49	0	1
TAP	49	192	1
TAP	49	288	0
TAP	50	0	7
TAP	50	192	7
TAP	50	288	7
TAP	51	0	0
TAP	51	0	5
TAP	51	192	2
TAP	51	192	7
HLD	52	0	5	96
TAP	52	192	4
TAP	52	288	3
HLD	53	0	2	192
HLD	54	0	1	96
TAP	54	192	2
TAP	54	192	3
TAP	54	288	4
TAP	54	288	5
HLD	55	0	6	288
HLD	56	0	4	96
TAP	56	192	3
TAP	56	288	2
TAP	57	0	1
TAP	57	96	6
TAP	57	192	1
TAP	57	192	6
TAP	58	0	6
TAP	58	192	7
TAP	58	288	0
TAP	59	0	0
TAP	59	0	7
TAP	59	192	1
TAP	59	192	6
TAP	60	0	0
TAP	60	0	4
TAP	60	192	2
TAP	60	192	6

T_REC_TAP	87
T_REC_BRK	2
T_REC_XTP	0
T_REC_HLD	33
T_REC_XHO	0
T_REC_STR	4
T_REC_BST	0
T_REC_XST	0
T_REC_TTP	0
T_REC_THO	0
T_REC_SLD	4
T_REC_ALL	130
T_NUM_TAP	91
T_NUM_BRK	2
T_NUM_HLD	33
T_NUM_SLD	4
T_NUM_ALL	130
T_JUDGE_TAP	93
T_JUDGE_HLD	112
T_JUDGE_SLD	4
T_JUDGE_ALL	209
TTM_EACHPAIRS	10
TTM_SCR_TAP	45500
TTM_SCR_BRK	5200
TTM_SCR_HLD	33000
TTM_SCR_SLD	6000
TTM_SCR_ALL	89700
TTM_SCR_S	86850
TTM_SCR_SS	89500
TTM_RAT_ACV	10022

