VERSION	0.00.00	1.03.00
FES_MODE	0
BPM_DEF	130.000	130.000	130.000	130.000
MET_DEF	4	4
RESOLUTION	384
CLK_DEF	384
COMPATIBLE_CODE	MA2

BPM	0	0	130.000
MET	0	0	4	4

HLD	1	0	5	576
STR	1	192	7
SCR	1	192	7	96	288	4
BRK	1	288	7
HLD	3	0	2	576
STR	3	192	0
SCL	3	192	0	96	288	3
BRK	3	288	0
TAP	5	0	5
HLD	5	96	5	480
STR	5	192	7
SCR	5	192	7	96	288	4
BRK	5	288	7
TAP	7	0	2
HLD	7	96	2	480
STR	7	192	0
SCL	7	192	0	96	288	3
BRK	7	288	0
TAP	9	0	1
TAP	9	0	6
STR	9	96	0
SI_	9	96	0	96	48	3
TAP	9	96	7
TAP	9	192	0
STR	9	192	7
SI_	9	192	7	96	48	4
BRK	9	288	0
BRK	9	288	7
TAP	10	0	1
TAP	10	0	6
STR	10	96	0
SI_	10	96	0	96	48	4
TAP	10	96	7
TAP	10	192	0
STR	10	192	7
SI_	10	192	7	96	48	3
BRK	10	288	0
BRK	10	288	7
TAP	11	0	1
TAP	11	0	6
TAP	11	96	0
STR	11	96	7
SI_	11	96	7	96	48	4
STR	11	192	0
SI_	11	192	0	96	48	3
TAP	11	192	7
BRK	11	288	0
BRK	11	288	7
TAP	12	0	1
TAP	12	0	6
TAP	12	96	0
STR	12	96	7
SI_	12	96	7	96	48	3
STR	12	192	0
SI_	12	192	0	96	48	4
TAP	12	192	7
BRK	12	288	0
BRK	12	288	7
TAP	13	0	2
TAP	13	0	7
TAP	13	96	0
STR	13	96	1
SI_	13	96	1	96	48	4
STR	13	192	0
SI_	13	192	0	96	48	5
TAP	13	192	1
BRK	13	288	0
BRK	13	288	1
TAP	14	0	2
TAP	14	0	7
STR	14	96	0
SI_	14	96	0	96	48	4
TAP	14	96	1
TAP	14	192	0
STR	14	192	1
SI_	14	192	1	96	48	5
BRK	14	288	0
BRK	14	288	1
TAP	15	0	0
TAP	15	0	5
STR	15	96	6
SI_	15	96	6	96	48	3
TAP	15	96	7
TAP	15	192	6
STR	15	192	7
SI_	15	192	7	96	48	2
BRK	15	288	6
BRK	15	288	7
TAP	16	0	0
TAP	16	0	5
TAP	16	96	6
STR	16	96	7
SI_	16	96	7	96	48	3
STR	16	192	6
SI_	16	192	6	96	48	2
TAP	16	192	7
BRK	16	288	6
BRK	16	288	7
TAP	17	0	1
STR	17	0	7
SI_	17	0	7	96	48	4
TAP	17	96	1
TAP	17	96	7
STR	17	192	0
SI_	17	192	0	96	48	3
TAP	17	192	1
BRK	17	288	0
BRK	17	288	1
TAP	18	0	1
STR	18	0	7
SI_	18	0	7	96	48	3
TAP	18	96	1
TAP	18	96	7
STR	18	192	0
SI_	18	192	0	96	48	4
TAP	18	192	1
BRK	18	288	0
BRK	18	288	1
TAP	19	0	1
STR	19	0	7
SV_	19	0	7	96	48	4
TAP	19	96	1
TAP	19	96	7
STR	19	192	0
SV_	19	192	0	96	48	3
TAP	19	192	1
BRK	19	288	0
BRK	19	288	1
TAP	20	0	1
STR	20	0	7
SCL	20	0	7	96	48	4
TAP	20	96	1
TAP	20	96	7
STR	20	192	0
SUL	20	192	0	96	48	3
TAP	20	192	1
BRK	20	288	0
BRK	20	288	1
STR	21	0	0
SI_	21	0	0	96	48	3
TAP	21	0	6
TAP	21	96	0
TAP	21	96	6
TAP	21	192	6
STR	21	192	7
SI_	21	192	7	96	48	4
BRK	21	288	6
BRK	21	288	7
STR	22	0	0
SI_	22	0	0	96	48	4
TAP	22	0	6
TAP	22	96	0
TAP	22	96	6
TAP	22	192	6
STR	22	192	7
SI_	22	192	7	96	48	3
BRK	22	288	6
BRK	22	288	7
STR	23	0	0
SV_	23	0	0	96	48	3
TAP	23	0	6
TAP	23	96	0
TAP	23	96	6
TAP	23	192	6
STR	23	192	7
SV_	23	192	7	96	48	4
BRK	23	288	6
BRK	23	288	7
STR	24	0	0
SCR	24	0	0	96	48	3
TAP	24	0	6
TAP	24	96	0
TAP	24	96	6
TAP	24	192	6
STR	24	192	7
SUR	24	192	7	96	48	4
BRK	24	288	6
BRK	24	288	7
STR	25	0	0
SI_	25	0	0	96	48	3
TAP	25	0	7
TAP	25	96	0
STR	25	96	7
SI_	25	96	7	96	48	4
STR	25	192	3
SI_	25	192	3	96	48	0
TAP	25	192	7
BRK	25	288	3
BRK	25	288	4
TAP	26	0	0
STR	26	0	7
SI_	26	0	7	96	48	4
STR	26	96	0
SI_	26	96	0	96	48	3
TAP	26	96	7
TAP	26	192	0
STR	26	192	4
SI_	26	192	4	96	48	7
BRK	26	288	3
BRK	26	288	4
STR	27	0	0
SCR	27	0	0	96	48	3
TAP	27	0	7
TAP	27	96	0
STR	27	96	7
SCL	27	96	7	96	48	4
STR	27	192	3
SI_	27	192	3	96	48	0
TAP	27	192	7
BRK	27	288	3
BRK	27	288	4
TAP	28	0	0
STR	28	0	7
SCL	28	0	7	96	48	4
STR	28	96	0
SCR	28	96	0	96	48	3
TAP	28	96	7
TAP	28	192	0
STR	28	192	4
SI_	28	192	4	96	48	7
BRK	28	288	3
BRK	28	288	4
TAP	29	0	0
STR	29	0	1
SI_	29	0	1	96	48	4
STR	29	96	0
SI_	29	96	0	96	48	5
TAP	29	96	1
TAP	29	192	0
STR	29	192	4
SI_	29	192	4	96	48	1
BRK	29	288	4
BRK	29	288	5
TAP	30	0	0
STR	30	0	1
SCR	30	0	1	96	48	4
STR	30	96	0
SCL	30	96	0	96	48	5
TAP	30	96	1
TAP	30	192	0
STR	30	192	4
SI_	30	192	4	96	48	1
BRK	30	288	4
BRK	30	288	5
STR	31	0	6
SI_	31	0	6	96	48	3
TAP	31	0	7
TAP	31	96	6
STR	31	96	7
SI_	31	96	7	96	48	2
STR	31	192	3
SI_	31	192	3	96	48	6
TAP	31	192	7
BRK	31	288	2
BRK	31	288	3
STR	32	0	6
SCL	32	0	6	96	48	3
TAP	32	0	7
TAP	32	96	6
STR	32	96	7
SCR	32	96	7	96	48	2
STR	32	192	3
SI_	32	192	3	96	48	6
TAP	32	192	7
BRK	32	288	2
BRK	32	288	3
STR	33	0	1
SI_	33	0	1	96	48	4
TAP	33	0	6
TAP	33	96	1
STR	33	96	6
SI_	33	96	6	96	48	3
STR	33	192	0
SI_	33	192	0	96	48	4
BRK	33	192	6
BRK	33	288	0
BRK	33	288	7
TAP	34	0	1
STR	34	0	6
SI_	34	0	6	96	48	3
STR	34	96	1
SI_	34	96	1	96	48	4
TAP	34	96	6
BRK	34	192	1
STR	34	192	7
SI_	34	192	7	96	48	3
BRK	34	288	0
BRK	34	288	7
STR	35	0	1
SI_	35	0	1	96	48	4
TAP	35	0	6
TAP	35	96	1
STR	35	96	6
SI_	35	96	6	96	48	3
STR	35	192	0
SI_	35	192	0	96	48	4
BRK	35	192	6
BRK	35	288	0
BRK	35	288	7
TAP	36	0	1
STR	36	0	6
SI_	36	0	6	96	48	3
STR	36	96	1
SI_	36	96	1	96	48	4
TAP	36	96	6
BRK	36	192	1
STR	36	192	7
SI_	36	192	7	96	48	3
BRK	36	288	0
BRK	36	288	7
STR	37	0	1
SI_	37	0	1	96	48	4
TAP	37	0	6
TAP	37	96	1
STR	37	96	6
SI_	37	96	6	96	48	3
STR	37	192	0
SI_	37	192	0	96	48	4
BRK	37	192	6
BRK	37	288	0
STR	37	288	7
SI_	37	288	7	96	48	3
STR	38	0	0
SI_	38	0	0	96	48	4
TAP	38	0	7
BRK	38	96	0
STR	38	96	6
SI_	38	96	6	96	48	3
STR	38	192	1
SI_	38	192	1	96	48	4
BRK	38	192	6
BRK	38	288	1
BRK	38	288	6
TAP	39	0	1
STR	39	0	6
SI_	39	0	6	96	48	3
STR	39	96	1
SI_	39	96	1	96	48	4
TAP	39	96	6
BRK	39	192	1
STR	39	192	7
SI_	39	192	7	96	48	3
STR	39	288	0
SI_	39	288	0	96	48	4
BRK	39	288	7
TAP	40	0	0
STR	40	0	7
SI_	40	0	7	96	48	3
STR	40	96	1
SI_	40	96	1	96	48	4
BRK	40	96	7
BRK	40	192	1
STR	40	192	6
SI_	40	192	6	96	48	3
BRK	40	288	1
BRK	40	288	6
STR	41	0	1
SI_	41	0	1	96	48	4
TAP	41	0	6
TAP	41	96	1
STR	41	96	6
SI_	41	96	6	96	48	3
STR	41	192	0
SCR	41	192	0	96	48	3
BRK	41	192	6
BRK	41	288	0
STR	41	288	7
SCL	41	288	7	96	48	4
STR	42	0	0
SI_	42	0	0	96	48	4
TAP	42	0	7
BRK	42	96	0
STR	42	96	6
SI_	42	96	6	96	48	2
STR	42	192	1
SI_	42	192	1	96	48	5
BRK	42	192	6
BRK	42	288	1
BRK	42	288	6
TAP	43	0	1
STR	43	0	6
SI_	43	0	6	96	48	3
STR	43	96	1
SI_	43	96	1	96	48	4
TAP	43	96	6
BRK	43	192	1
STR	43	192	7
SCL	43	192	7	96	48	4
STR	43	288	0
SCR	43	288	0	96	48	3
BRK	43	288	7
TAP	44	0	0
STR	44	0	7
SI_	44	0	7	96	48	3
STR	44	96	1
SI_	44	96	1	96	48	5
BRK	44	96	7
BRK	44	192	1
STR	44	192	6
SI_	44	192	6	96	48	2
BRK	44	288	1
BRK	44	288	6
STR	45	0	1
SI_	45	0	1	96	48	4
BRK	45	0	6
BRK	45	96	1
STR	45	96	6
SI_	45	96	6	96	48	3
STR	45	192	0
SI_	45	192	0	96	48	3
BRK	45	192	6
BRK	45	288	0
STR	45	288	7
SI_	45	288	7	96	48	4
STR	46	0	3
SI_	46	0	3	96	48	0
BRK	46	0	7
BRK	46	96	3
STR	46	96	4
SI_	46	96	4	96	48	7
STR	46	192	0
SI_	46	192	0	96	48	4
BRK	46	192	4
BRK	46	288	0
BRK	46	288	7
BRK	47	0	1
STR	47	0	6
SI_	47	0	6	96	48	3
STR	47	96	1
SI_	47	96	1	96	48	4
BRK	47	96	6
BRK	47	192	1
STR	47	192	7
SI_	47	192	7	96	48	4
STR	47	288	0
SI_	47	288	0	96	48	3
BRK	47	288	7
BRK	48	0	0
STR	48	0	4
SI_	48	0	4	96	48	7
STR	48	96	3
SI_	48	96	3	96	48	0
BRK	48	96	4
BRK	48	192	3
STR	48	192	7
SI_	48	192	7	96	48	3
BRK	48	288	0
BRK	48	288	7
STR	49	0	1
SI_	49	0	1	96	48	4
BRK	49	0	7
BRK	49	96	1
STR	49	96	7
SI_	49	96	7	96	48	3
STR	49	192	4
SI_	49	192	4	96	48	0
BRK	49	192	7
STR	49	288	3
SI_	49	288	3	96	48	7
BRK	49	288	4
STR	50	0	0
SCR	50	0	0	96	48	3
BRK	50	0	3
BRK	50	96	0
STR	50	96	7
SCL	50	96	7	96	48	4
STR	50	192	3
SI_	50	192	3	96	48	7
BRK	50	192	7
BRK	50	288	3
BRK	50	288	4
BRK	51	0	0
STR	51	0	6
SI_	51	0	6	96	48	3
STR	51	96	0
SI_	51	96	0	96	48	4
BRK	51	96	6
BRK	51	192	0
STR	51	192	3
SI_	51	192	3	96	48	7
BRK	51	288	3
STR	51	288	4
SI_	51	288	4	96	48	0
BRK	52	0	4
STR	52	0	7
SCL	52	0	7	96	48	4
STR	52	96	0
SCR	52	96	0	96	48	3
BRK	52	96	7
BRK	52	192	0
STR	52	192	4
SI_	52	192	4	96	48	0
BRK	52	288	3
BRK	52	288	4
BRK	53	0	1
BRK	53	0	6

T_REC_TAP	110
T_REC_BRK	126
T_REC_XTP	0
T_REC_HLD	4
T_REC_XHO	0
T_REC_STR	128
T_REC_BST	0
T_REC_XST	0
T_REC_TTP	0
T_REC_THO	0
T_REC_SLD	128
T_REC_ALL	496
T_NUM_TAP	238
T_NUM_BRK	126
T_NUM_HLD	4
T_NUM_SLD	128
T_NUM_ALL	496
T_JUDGE_TAP	364
T_JUDGE_HLD	44
T_JUDGE_SLD	128
T_JUDGE_ALL	536
TTM_EACHPAIRS	177
TTM_SCR_TAP	119000
TTM_SCR_BRK	327600
TTM_SCR_HLD	4000
TTM_SCR_SLD	192000
TTM_SCR_ALL	642600
TTM_SCR_S	611100
TTM_SCR_SS	630000
TTM_RAT_ACV	10200

