VERSION	0.00.00	1.03.00
FES_MODE	0
BPM_DEF	130.000	130.000	130.000	130.000
MET_DEF	4	4
RESOLUTION	384
CLK_DEF	384
COMPATIBLE_CODE	MA2

BPM	0	0	130.000
MET	0	0	4	4

TAP	5	0	2
TAP	5	96	3
TAP	5	192	4
TAP	5	288	5
TAP	6	0	6
TAP	6	96	7
TAP	6	192	0
TAP	6	288	1
TAP	7	0	2
TAP	7	0	6
TAP	7	96	3
TAP	7	96	7
TAP	7	192	0
TAP	7	192	4
TAP	7	288	1
TAP	7	288	5
TAP	8	0	2
TAP	8	0	6
TAP	8	96	3
TAP	8	96	7
TAP	8	192	0
TAP	8	192	4
TAP	8	288	1
TAP	8	288	5
TAP	9	0	2
TAP	9	0	6
TAP	9	96	3
TAP	9	96	5
TAP	9	144	4
TAP	9	192	3
TAP	9	192	5
TAP	9	288	2
TAP	9	288	6
TAP	10	96	1
TAP	10	96	7
TAP	10	144	0
TAP	10	192	1
TAP	10	192	7
TAP	10	288	2
TAP	10	288	6
TAP	11	0	1
TAP	11	0	5
TAP	11	96	2
TAP	11	96	4
TAP	11	144	3
TAP	11	192	2
TAP	11	192	4
TAP	11	288	1
TAP	11	288	5
TAP	12	96	0
TAP	12	96	6
TAP	12	144	7
TAP	12	192	0
TAP	12	192	6
TAP	12	288	1
TAP	12	288	5
TAP	13	0	0
TAP	13	0	4
TAP	13	96	1
TAP	13	96	3
TAP	13	144	2
TAP	13	192	1
TAP	13	192	3
TAP	13	288	0
TAP	13	288	4
TAP	14	96	5
TAP	14	96	7
TAP	14	144	6
TAP	14	192	5
TAP	14	192	7
TAP	14	288	0
TAP	14	288	4
TAP	15	0	3
TAP	15	0	7
TAP	15	96	4
TAP	15	96	6
TAP	15	144	5
TAP	15	192	4
TAP	15	192	6
TAP	15	288	3
TAP	15	288	7
TAP	16	96	0
TAP	16	96	2
TAP	16	144	1
TAP	16	192	0
TAP	16	192	2
TAP	16	288	3
TAP	16	288	7
TAP	17	0	4
TAP	17	96	4
TAP	17	192	4
TAP	17	288	4
TAP	18	0	4
TAP	18	96	4
TAP	18	192	4
TAP	18	288	4
STR	19	0	2
SCL	19	0	2	96	192	7
TAP	19	0	4
TAP	19	96	4
TAP	19	192	4
TAP	19	288	4
TAP	20	0	4
STR	20	0	6
SCR	20	0	6	96	192	1
TAP	20	96	4
TAP	20	192	4
TAP	20	288	4
TAP	21	0	3
TAP	21	96	3
TAP	21	192	3
TAP	21	288	3
TAP	22	0	3
TAP	22	96	3
TAP	22	192	3
TAP	22	288	3
TAP	23	0	3
STR	23	0	5
SCR	23	0	5	96	192	0
TAP	23	96	3
TAP	23	192	3
TAP	23	288	3
STR	24	0	1
SCL	24	0	1	96	192	6
TAP	24	0	3
TAP	24	96	3
TAP	24	192	3
TAP	24	288	3
TAP	25	0	4
TAP	25	48	3
HLD	25	96	2	96
TAP	25	192	4
TAP	25	240	3
HLD	25	288	2	96
TAP	26	0	3
TAP	26	48	4
HLD	26	96	5	96
TAP	26	192	3
TAP	26	240	4
HLD	26	288	5	96
TAP	27	0	3
TAP	27	48	2
HLD	27	96	1	96
TAP	27	192	3
TAP	27	240	2
HLD	27	288	1	96
TAP	28	0	4
TAP	28	48	5
HLD	28	96	6	96
TAP	28	192	4
TAP	28	240	5
HLD	28	288	6	96
TAP	29	0	2
TAP	29	48	1
HLD	29	96	0	96
TAP	29	192	2
TAP	29	240	1
HLD	29	288	0	96
TAP	30	0	5
TAP	30	48	6
HLD	30	96	7	96
TAP	30	192	5
TAP	30	240	6
HLD	30	288	7	96
TAP	31	0	1
TAP	31	48	0
HLD	31	96	7	96
TAP	31	192	1
TAP	31	240	0
HLD	31	288	7	96
TAP	32	0	6
TAP	32	48	7
HLD	32	96	0	96
TAP	32	192	6
TAP	32	240	7
BRK	32	288	0
STR	33	0	2
SI_	33	0	2	96	192	7
STR	33	0	6
SI_	33	0	6	96	192	3
STR	34	0	0
SCR	34	0	0	96	192	3
STR	34	0	4
SCR	34	0	4	96	192	7
STR	35	0	1
SI_	35	0	1	96	192	4
STR	35	0	5
SI_	35	0	5	96	192	0
STR	36	0	3
SCL	36	0	3	96	192	0
STR	36	0	7
SCL	36	0	7	96	192	4
TAP	37	0	0
TAP	37	96	6
TAP	37	144	7
STR	37	192	0
SI_	37	192	0	96	96	3
STR	37	288	7
SI_	37	288	7	96	96	4
TAP	38	96	2
TAP	38	144	1
STR	38	192	0
SI_	38	192	0	96	96	5
STR	38	288	1
SI_	38	288	1	96	96	4
TAP	39	96	1
TAP	39	144	0
STR	39	192	7
SI_	39	192	7	96	96	4
STR	39	288	0
SI_	39	288	0	96	96	3
TAP	40	96	5
TAP	40	144	6
STR	40	192	7
SI_	40	192	7	96	96	2
STR	40	288	6
SI_	40	288	6	96	96	3
TAP	41	96	5
TAP	41	144	4
HLD	41	192	3	192
STR	41	288	1
SI_	41	288	1	96	96	5
TAP	42	96	2
TAP	42	144	3
HLD	42	192	4	192
STR	42	288	6
SI_	42	288	6	96	96	2
TAP	43	96	7
TAP	43	144	0
STR	43	192	1
SI_	43	192	1	96	96	5
HLD	43	288	6	192
TAP	44	96	0
TAP	44	144	7
STR	44	192	6
SI_	44	192	6	96	96	2
BRK	44	288	1
STR	45	0	7
SI_	45	0	7	96	96	2
TAP	45	96	6
TAP	45	144	5
TAP	45	192	4
BRK	45	288	3
STR	46	0	2
SI_	46	0	2	96	96	5
TAP	46	96	1
TAP	46	144	0
TAP	46	192	7
BRK	46	288	6
STR	47	0	5
SI_	47	0	5	96	96	0
TAP	47	96	4
TAP	47	144	3
TAP	47	192	2
BRK	47	288	1
STR	48	0	0
SI_	48	0	0	96	96	3
TAP	48	96	7
TAP	48	144	6
TAP	48	192	5
BRK	48	288	4
STR	49	0	3
SI_	49	0	3	96	96	6
TAP	49	96	2
TAP	49	144	1
TAP	49	192	0
BRK	49	288	7
STR	50	0	6
SI_	50	0	6	96	96	1
TAP	50	96	5
TAP	50	144	4
TAP	50	192	3
BRK	50	288	2
STR	51	0	1
SI_	51	0	1	96	96	4
TAP	51	96	0
TAP	51	144	7
TAP	51	192	6
BRK	51	288	5
STR	52	0	4
SI_	52	0	4	96	96	7
TAP	52	96	3
TAP	52	144	2
TAP	52	192	1
STR	52	288	0
SI_	52	288	0	96	288	3

T_REC_TAP	193
T_REC_BRK	9
T_REC_XTP	0
T_REC_HLD	18
T_REC_XHO	0
T_REC_STR	33
T_REC_BST	0
T_REC_XST	0
T_REC_TTP	0
T_REC_THO	0
T_REC_SLD	33
T_REC_ALL	286
T_NUM_TAP	226
T_NUM_BRK	9
T_NUM_HLD	18
T_NUM_SLD	33
T_NUM_ALL	286
T_JUDGE_TAP	235
T_JUDGE_HLD	42
T_JUDGE_SLD	33
T_JUDGE_ALL	310
TTM_EACHPAIRS	44
TTM_SCR_TAP	113000
TTM_SCR_BRK	23400
TTM_SCR_HLD	18000
TTM_SCR_SLD	49500
TTM_SCR_ALL	203900
TTM_SCR_S	196950
TTM_SCR_SS	203000
TTM_RAT_ACV	10044

