VERSION	0.00.00	1.03.00
FES_MODE	0
BPM_DEF	130.000	130.000	130.000	130.000
MET_DEF	4	4
RESOLUTION	384
CLK_DEF	384
COMPATIBLE_CODE	MA2

BPM	0	0	130.000
MET	0	0	4	4

TAP	1	0	6
TAP	1	96	6
TAP	1	144	6
TAP	1	192	6
TAP	1	288	7
TAP	2	48	5
TAP	2	96	5
TAP	2	144	5
TAP	2	192	5
TAP	2	288	6
TAP	3	0	4
TAP	3	96	4
TAP	3	144	4
TAP	3	192	4
TAP	3	288	5
TAP	4	48	3
TAP	4	96	3
TAP	4	144	3
TAP	4	192	3
TAP	4	288	4
TAP	5	0	2
TAP	5	96	2
TAP	5	144	2
TAP	5	192	2
TAP	5	288	3
TAP	6	48	1
TAP	6	96	1
TAP	6	144	1
TAP	6	192	1
TAP	6	288	2
TAP	7	0	0
TAP	7	96	1
TAP	7	192	2
TAP	7	288	3
TAP	8	0	4
TAP	8	96	5
TAP	8	192	6
TAP	8	288	7
TAP	9	0	0
TAP	9	96	0
TAP	9	144	0
TAP	9	192	0
TAP	9	288	1
TAP	9	288	5
TAP	10	48	2
TAP	10	96	2
TAP	10	144	2
TAP	10	192	2
TAP	10	288	3
TAP	10	288	7
TAP	11	0	3
TAP	11	96	3
TAP	11	144	3
TAP	11	192	3
TAP	11	288	0
TAP	11	288	4
TAP	12	48	5
TAP	12	96	5
TAP	12	144	5
TAP	12	192	5
TAP	12	288	2
TAP	12	288	6
TAP	13	0	7
TAP	13	96	7
TAP	13	144	7
TAP	13	192	7
TAP	13	288	2
TAP	13	288	6
TAP	14	48	5
TAP	14	96	5
TAP	14	144	5
TAP	14	192	5
TAP	14	288	0
TAP	14	288	4
TAP	15	0	3
TAP	15	96	3
TAP	15	144	3
TAP	15	192	3
TAP	15	288	2
TAP	15	288	6
TAP	16	48	1
TAP	16	96	1
TAP	16	144	1
TAP	16	192	1
TAP	16	288	0
TAP	16	288	4
STR	17	0	5
SI_	17	0	5	96	288	0
STR	18	0	1
SI_	18	0	1	96	288	4
HLD	19	0	1	96
TAP	19	192	0
TAP	19	288	1
TAP	19	336	2
TAP	20	48	3
TAP	20	96	3
HLD	20	192	0	51
TAP	20	288	1
TAP	20	336	2
TAP	21	48	3
STR	21	96	3
SI_	21	96	3	96	192	7
STR	22	0	0
SI_	22	0	0	96	192	4
HLD	23	0	1	96
TAP	23	192	0
TAP	23	288	1
TAP	23	336	2
TAP	24	48	3
TAP	24	96	3
HLD	24	192	0	51
TAP	24	288	1
TAP	24	336	2
HLD	25	48	3	624
TAP	25	96	4
TAP	25	192	4
TAP	25	288	4
TAP	26	0	4
TAP	26	96	4
TAP	26	192	4
TAP	26	288	4
HLD	27	0	3	672
TAP	27	0	5
TAP	27	96	5
TAP	27	192	5
TAP	27	288	5
TAP	28	0	5
TAP	28	96	5
TAP	28	192	5
TAP	28	288	5
HLD	29	0	6	192
TAP	29	240	5
TAP	29	288	5
TAP	29	336	5
HLD	30	0	5	288
HLD	31	0	6	96
HLD	31	192	7	96
HLD	32	0	0	96
HLD	32	192	1	96
TAP	33	0	6
TAP	33	96	6
TAP	33	144	6
TAP	33	192	6
TAP	33	288	7
TAP	34	48	5
TAP	34	96	5
TAP	34	144	5
TAP	34	192	5
TAP	34	288	6
TAP	35	0	4
TAP	35	96	4
TAP	35	144	4
TAP	35	192	4
TAP	35	288	5
TAP	36	48	3
TAP	36	96	3
TAP	36	144	3
TAP	36	192	3
TAP	36	288	4
TAP	37	0	0
TAP	37	0	6
TAP	37	96	0
TAP	37	96	6
TAP	37	144	0
TAP	37	192	0
TAP	37	192	6
TAP	37	288	1
TAP	37	288	5
TAP	38	0	0
TAP	38	48	2
TAP	38	96	0
TAP	38	96	2
TAP	38	144	2
TAP	38	192	0
TAP	38	192	2
TAP	38	288	3
TAP	38	288	7
TAP	39	0	1
TAP	39	0	3
TAP	39	96	1
TAP	39	96	3
TAP	39	144	3
TAP	39	192	1
TAP	39	192	3
TAP	39	288	0
TAP	39	288	4
TAP	40	0	1
TAP	40	48	5
TAP	40	96	1
TAP	40	96	5
TAP	40	144	5
TAP	40	192	1
TAP	40	192	5
TAP	40	288	0
TAP	40	288	4
TAP	41	0	3
TAP	41	0	7
TAP	41	96	3
TAP	41	96	7
TAP	41	144	7
TAP	41	192	3
TAP	41	192	7
TAP	41	288	2
TAP	41	288	6
TAP	42	0	1
TAP	42	48	5
TAP	42	96	1
TAP	42	96	5
TAP	42	144	5
TAP	42	192	1
TAP	42	192	5
TAP	42	288	0
TAP	42	288	4
TAP	43	0	3
TAP	43	0	7
TAP	43	96	3
TAP	43	96	7
TAP	43	144	3
TAP	43	192	3
TAP	43	192	7
TAP	43	288	2
TAP	43	288	6
TAP	44	0	5
TAP	44	48	1
TAP	44	96	1
TAP	44	96	5
TAP	44	144	1
TAP	44	192	1
TAP	44	192	5
TAP	44	288	0
TAP	44	288	4
TAP	45	0	0
TAP	45	0	6
TAP	45	96	0
TAP	45	96	6
TAP	45	144	0
TAP	45	192	0
TAP	45	192	6
TAP	45	288	1
TAP	45	288	5
TAP	46	0	0
TAP	46	48	2
TAP	46	96	0
TAP	46	96	2
TAP	46	144	2
TAP	46	192	0
TAP	46	192	2
TAP	46	288	3
TAP	46	288	7
TAP	47	0	1
TAP	47	0	3
TAP	47	96	1
TAP	47	96	3
TAP	47	144	3
TAP	47	192	1
TAP	47	192	3
TAP	47	288	0
TAP	47	288	4
TAP	48	0	1
TAP	48	48	5
TAP	48	96	1
TAP	48	96	5
TAP	48	144	5
TAP	48	192	1
TAP	48	192	5
TAP	48	288	0
TAP	48	288	4
TAP	49	0	3
TAP	49	0	7
TAP	49	96	3
TAP	49	96	7
TAP	49	144	7
TAP	49	192	3
TAP	49	192	7
TAP	49	288	2
BRK	49	288	6
TAP	50	0	1
TAP	50	48	5
TAP	50	96	1
TAP	50	96	5
TAP	50	144	5
TAP	50	192	1
TAP	50	192	5
TAP	50	288	0
BRK	50	288	4
TAP	51	0	3
TAP	51	0	7
TAP	51	96	3
TAP	51	96	7
TAP	51	144	3
TAP	51	192	3
TAP	51	192	7
BRK	51	288	2
TAP	51	288	6
TAP	52	0	5
TAP	52	48	1
TAP	52	96	1
TAP	52	96	5
TAP	52	144	1
TAP	52	192	1
TAP	52	192	5
STR	52	288	0
SI_	52	288	0	96	192	4
TAP	52	288	4

T_REC_TAP	279
T_REC_BRK	3
T_REC_XTP	0
T_REC_HLD	12
T_REC_XHO	0
T_REC_STR	5
T_REC_BST	0
T_REC_XST	0
T_REC_TTP	0
T_REC_THO	0
T_REC_SLD	5
T_REC_ALL	304
T_NUM_TAP	284
T_NUM_BRK	3
T_NUM_HLD	12
T_NUM_SLD	5
T_NUM_ALL	304
T_JUDGE_TAP	287
T_JUDGE_HLD	53
T_JUDGE_SLD	5
T_JUDGE_ALL	345
TTM_EACHPAIRS	65
TTM_SCR_TAP	142000
TTM_SCR_BRK	7800
TTM_SCR_HLD	12000
TTM_SCR_SLD	7500
TTM_SCR_ALL	169300
TTM_SCR_S	163950
TTM_SCR_SS	169000
TTM_RAT_ACV	10017

