VERSION	0.00.00	1.03.00
FES_MODE	0
BPM_DEF	130.000	130.000	130.000	130.000
MET_DEF	4	4
RESOLUTION	384
CLK_DEF	384
COMPATIBLE_CODE	MA2

BPM	0	0	130.000
MET	0	0	4	4

TAP	3	0	0
TAP	3	96	1
TAP	3	192	2
TAP	4	0	7
TAP	4	96	6
TAP	4	192	5
TAP	5	0	0
TAP	5	0	1
TAP	5	96	1
TAP	5	96	2
TAP	5	192	2
TAP	5	192	3
TAP	6	0	6
TAP	6	0	7
TAP	6	96	5
TAP	6	96	6
TAP	6	192	4
TAP	6	192	5
TAP	7	0	0
TAP	7	0	1
TAP	7	96	1
TAP	7	96	2
TAP	7	192	2
TAP	7	192	3
TAP	7	288	3
TAP	7	288	4
TAP	8	0	4
TAP	8	0	5
TAP	8	96	5
TAP	8	96	6
TAP	8	192	6
TAP	8	192	7
TAP	8	288	0
TAP	8	288	7
TAP	9	0	1
HLD	9	0	6	192
TAP	9	96	0
TAP	9	192	7
TAP	9	288	6
TAP	9	288	7
TAP	10	96	0
HLD	10	96	6	96
TAP	10	192	7
TAP	10	288	6
TAP	10	288	7
HLD	11	0	1	192
TAP	11	0	6
TAP	11	96	7
TAP	11	192	0
TAP	11	288	0
TAP	11	288	1
HLD	12	96	1	96
TAP	12	96	7
TAP	12	192	0
TAP	12	288	0
TAP	12	288	1
TAP	13	0	0
HLD	13	0	7	192
TAP	13	96	1
TAP	13	192	2
TAP	13	288	2
TAP	13	288	7
TAP	14	96	1
HLD	14	96	7	96
TAP	14	192	2
TAP	14	288	2
TAP	14	288	7
HLD	15	0	0	192
TAP	15	0	7
TAP	15	96	6
TAP	15	192	5
TAP	15	288	0
TAP	15	288	5
HLD	16	96	0	96
TAP	16	96	6
TAP	16	192	5
TAP	16	288	0
TAP	16	288	5
STR	17	0	1
SCR	17	0	1	96	192	4
HLD	19	0	6	192
HLD	19	192	5	192
HLD	20	0	6	192
HLD	20	192	5	192
STR	21	0	6
SCL	21	0	6	96	192	3
HLD	23	0	1	192
HLD	23	192	2	192
HLD	24	0	1	192
HLD	24	192	2	192
TAP	25	0	3
TAP	25	96	4
TAP	25	192	3
TAP	25	288	2
TAP	26	0	3
TAP	26	96	4
TAP	26	192	3
TAP	26	288	2
TAP	27	0	3
TAP	27	96	5
TAP	27	192	3
TAP	27	288	1
TAP	28	0	3
TAP	28	96	5
TAP	28	192	3
TAP	28	288	1
TAP	29	0	4
TAP	29	96	3
TAP	29	192	4
TAP	29	288	5
TAP	30	0	4
TAP	30	96	3
TAP	30	192	4
TAP	30	288	5
TAP	31	0	4
TAP	31	96	2
TAP	31	192	4
TAP	31	288	6
TAP	32	0	4
TAP	32	96	2
TAP	32	192	4
TAP	32	288	6
TAP	33	0	4
TAP	33	96	3
STR	33	192	2
SCR	33	192	2	96	192	5
TAP	35	0	3
TAP	35	96	4
STR	35	192	5
SCL	35	192	5	96	192	2
TAP	37	0	1
TAP	37	96	1
TAP	37	144	1
TAP	37	192	1
BRK	37	288	7
TAP	38	48	2
TAP	38	96	2
TAP	38	144	2
TAP	38	192	2
BRK	38	288	7
TAP	39	0	6
TAP	39	96	6
TAP	39	144	6
TAP	39	192	6
BRK	39	288	0
TAP	40	48	5
TAP	40	96	5
TAP	40	144	5
TAP	40	192	5
BRK	40	288	0
TAP	41	0	2
TAP	41	96	2
TAP	41	144	2
TAP	41	192	2
TAP	41	288	4
TAP	42	48	1
TAP	42	96	1
TAP	42	144	1
TAP	42	192	1
TAP	42	288	4
TAP	43	0	6
TAP	43	96	6
TAP	43	144	6
TAP	43	192	6
TAP	43	288	3
TAP	44	48	5
TAP	44	96	5
TAP	44	144	5
TAP	44	192	5
TAP	44	288	3
TAP	45	0	0
TAP	45	96	0
TAP	45	144	0
STR	45	192	0
SI_	45	192	0	96	96	5
TAP	46	48	1
TAP	46	96	1
TAP	46	144	1
STR	46	192	1
SI_	46	192	1	96	96	4
TAP	47	0	7
TAP	47	96	7
TAP	47	144	7
STR	47	192	7
SI_	47	192	7	96	96	2
TAP	48	48	6
TAP	48	96	6
TAP	48	144	6
STR	48	192	6
SI_	48	192	6	96	96	3
TAP	49	0	2
TAP	49	96	2
TAP	49	144	2
STR	49	192	2
SI_	49	192	2	96	96	6
TAP	50	48	3
TAP	50	96	3
TAP	50	144	3
STR	50	192	3
SI_	50	192	3	96	96	7
TAP	51	0	5
TAP	51	96	5
TAP	51	144	5
STR	51	192	5
SI_	51	192	5	96	96	1
TAP	52	48	4
TAP	52	96	4
TAP	52	144	4
STR	52	192	4
SI_	52	192	4	96	96	0

T_REC_TAP	166
T_REC_BRK	4
T_REC_XTP	0
T_REC_HLD	16
T_REC_XHO	0
T_REC_STR	12
T_REC_BST	0
T_REC_XST	0
T_REC_TTP	0
T_REC_THO	0
T_REC_SLD	12
T_REC_ALL	210
T_NUM_TAP	178
T_NUM_BRK	4
T_NUM_HLD	16
T_NUM_SLD	12
T_NUM_ALL	210
T_JUDGE_TAP	182
T_JUDGE_HLD	56
T_JUDGE_SLD	12
T_JUDGE_ALL	250
TTM_EACHPAIRS	30
TTM_SCR_TAP	89000
TTM_SCR_BRK	10400
TTM_SCR_HLD	16000
TTM_SCR_SLD	18000
TTM_SCR_ALL	133400
TTM_SCR_S	129050
TTM_SCR_SS	133000
TTM_RAT_ACV	10030

