VERSION	0.00.00	1.03.00
FES_MODE	0
BPM_DEF	130.000	130.000	130.000	130.000
MET_DEF	4	4
RESOLUTION	384
CLK_DEF	384
COMPATIBLE_CODE	MA2

BPM	0	0	130.000
MET	0	0	4	4

TAP	5	96	1
TAP	5	288	3
TAP	6	96	5
TAP	6	288	7
TAP	7	0	0
TAP	7	96	1
TAP	7	192	2
TAP	7	288	3
TAP	8	0	4
TAP	8	96	5
TAP	8	192	6
TAP	8	288	7
TAP	9	0	0
TAP	9	96	1
TAP	9	192	2
TAP	9	288	2
TAP	10	96	0
TAP	10	192	7
TAP	10	288	6
TAP	11	0	7
TAP	11	96	6
TAP	11	192	5
TAP	11	288	5
TAP	12	96	7
TAP	12	192	0
TAP	12	288	1
TAP	13	0	0
TAP	13	96	7
TAP	13	192	6
TAP	13	288	0
TAP	13	288	6
TAP	14	96	6
TAP	14	192	7
TAP	14	288	0
TAP	15	0	7
TAP	15	96	0
TAP	15	192	1
TAP	15	288	1
TAP	15	288	7
TAP	16	96	1
TAP	16	192	0
BRK	16	288	7
STR	17	0	6
SI_	17	0	6	96	192	1
TAP	19	0	1
TAP	19	192	7
TAP	20	0	5
TAP	20	192	3
STR	21	0	1
SI_	21	0	1	96	192	6
TAP	23	0	6
TAP	23	192	0
TAP	24	0	2
TAP	24	192	4
TAP	25	0	6
TAP	25	96	0
TAP	25	192	6
TAP	25	288	0
TAP	26	0	6
TAP	26	96	7
TAP	26	192	6
TAP	26	288	7
TAP	27	0	0
TAP	27	96	7
TAP	27	192	0
TAP	27	288	7
TAP	28	0	0
TAP	28	96	6
TAP	28	192	0
TAP	28	288	6
TAP	29	0	0
TAP	29	96	2
TAP	29	192	0
TAP	29	288	2
TAP	30	0	0
TAP	30	96	1
TAP	30	192	0
TAP	30	288	1
TAP	31	0	2
TAP	31	96	1
TAP	31	192	2
TAP	31	288	1
TAP	32	0	6
TAP	32	96	1
TAP	32	192	6
TAP	32	288	1
BRK	33	0	5
TAP	33	192	7
TAP	33	288	0
TAP	33	288	7
TAP	34	96	1
TAP	34	192	7
TAP	34	288	0
TAP	34	288	7
TAP	35	0	2
TAP	35	192	0
TAP	35	288	0
TAP	35	288	7
TAP	36	96	6
TAP	36	192	0
TAP	36	288	0
TAP	36	288	7
TAP	37	0	7
TAP	37	96	1
TAP	37	192	6
TAP	37	288	1
TAP	37	288	6
TAP	38	96	0
TAP	38	192	6
TAP	38	288	1
TAP	38	288	6
TAP	39	0	0
TAP	39	96	6
TAP	39	192	1
TAP	39	288	1
TAP	39	288	6
TAP	40	96	7
TAP	40	192	1
TAP	40	288	1
TAP	40	288	6
TAP	41	0	7
TAP	41	96	0
TAP	41	192	1
TAP	41	288	1
TAP	41	288	7
TAP	42	96	7
TAP	42	192	1
TAP	42	288	1
TAP	42	288	7
TAP	43	0	0
TAP	43	96	7
TAP	43	192	6
TAP	43	288	0
TAP	43	288	6
TAP	44	96	0
TAP	44	192	6
TAP	44	288	0
TAP	44	288	6
TAP	45	0	0
TAP	45	96	0
TAP	45	96	6
TAP	45	192	6
TAP	45	288	1
TAP	45	288	6
TAP	46	0	1
TAP	46	96	1
TAP	46	96	7
TAP	46	192	7
TAP	46	288	0
TAP	46	288	7
TAP	47	0	0
TAP	47	96	0
TAP	47	96	6
TAP	47	192	6
TAP	47	288	1
TAP	47	288	6
TAP	48	0	1
TAP	48	96	1
TAP	48	96	5
TAP	48	192	5
TAP	48	288	0
TAP	48	288	5
TAP	49	0	0
TAP	49	96	0
TAP	49	96	6
TAP	49	192	6
TAP	49	288	1
TAP	49	288	6
TAP	50	0	1
TAP	50	96	1
TAP	50	96	7
TAP	50	192	7
TAP	50	288	2
TAP	50	288	7
TAP	51	0	2
TAP	51	96	2
TAP	51	96	6
TAP	51	192	6
TAP	51	288	1
TAP	51	288	6
TAP	52	0	1
TAP	52	96	1
TAP	52	96	7
TAP	52	192	7
TAP	52	288	0
TAP	52	288	7
STR	53	0	0
SI_	53	0	0	96	192	3

T_REC_TAP	180
T_REC_BRK	2
T_REC_XTP	0
T_REC_HLD	0
T_REC_XHO	0
T_REC_STR	3
T_REC_BST	0
T_REC_XST	0
T_REC_TTP	0
T_REC_THO	0
T_REC_SLD	3
T_REC_ALL	188
T_NUM_TAP	183
T_NUM_BRK	2
T_NUM_HLD	0
T_NUM_SLD	3
T_NUM_ALL	188
T_JUDGE_TAP	185
T_JUDGE_HLD	0
T_JUDGE_SLD	3
T_JUDGE_ALL	188
TTM_EACHPAIRS	30
TTM_SCR_TAP	91500
TTM_SCR_BRK	5200
TTM_SCR_HLD	0
TTM_SCR_SLD	4500
TTM_SCR_ALL	101200
TTM_SCR_S	98000
TTM_SCR_SS	101000
TTM_RAT_ACV	10019

