VERSION	0.00.00	1.03.00
FES_MODE	0
BPM_DEF	 94.000	 94.000	 94.000	 94.000
MET_DEF	4	4
RESOLUTION	384
CLK_DEF	384
COMPATIBLE_CODE	MA2

BPM	0	0	 94.000
MET	0	0	4	4

TAP	1	96	0
TAP	1	144	1
TAP	1	192	1
TAP	1	240	2
STR	1	288	3
SCL	1	288	3	96	96	0
TAP	1	336	4
STR	2	96	7
SCL	2	96	7	96	96	4
STR	3	0	0
SI_	3	0	0	96	96	4
TAP	3	48	0
STR	3	192	6
SI_	3	192	6	96	96	2
TAP	3	240	6
STR	4	0	4
SI_	4	0	4	96	96	1
TAP	4	48	4
TAP	4	192	0
TAP	4	240	0
STR	4	288	7
SI_	4	288	7	96	48	4
STR	5	0	3
SI_	5	0	3	96	48	0
STR	5	192	6
SI_	5	192	6	96	192	3
STR	5	240	7
SI_	5	240	7	96	192	2
HLD	6	240	7	96
TAP	7	0	3
TAP	7	48	3
STR	7	192	2
SCR	7	192	2	96	96	5
TAP	7	240	2
TAP	8	0	0
TAP	8	48	0
STR	8	192	6
SCR	8	192	6	96	96	1
TAP	8	240	6
STR	9	0	2
SI_	9	0	2	96	48	6
HLD	9	48	3	192
STR	9	192	7
SI_	9	192	7	96	48	3
HLD	9	240	0	144
STR	10	0	7
SI_	10	0	7	96	48	3
STR	10	96	0
SI_	10	96	0	96	48	4
STR	10	192	1
SI_	10	192	1	96	48	5
STR	11	0	7
SI_	11	0	7	96	96	4
TAP	11	48	7
STR	11	192	1
SI_	11	192	1	96	96	6
TAP	11	240	1
STR	12	0	3
SI_	12	0	3	96	96	0
TAP	12	48	3
STR	12	192	5
SI_	12	192	5	96	48	2
TAP	12	240	5
TAP	13	0	2
TAP	13	0	6
TAP	13	96	0
TAP	13	96	4
TAP	13	192	5
STR	13	192	7
SI_	13	192	7	96	192	2
TAP	13	240	0
STR	13	240	6
SI_	13	240	6	96	192	3
HLD	14	240	7	96
TAP	15	0	3
TAP	15	48	3
STR	15	192	2
SCR	15	192	2	96	96	5
TAP	15	240	2
TAP	16	0	0
TAP	16	48	0
STR	16	192	6
SCR	16	192	6	96	96	1
TAP	16	240	6
STR	17	0	2
SI_	17	0	2	96	48	6
HLD	17	48	3	192
STR	17	192	7
SI_	17	192	7	96	48	3
HLD	17	240	0	144
STR	18	0	7
SI_	18	0	7	96	48	3
TAP	18	48	7
STR	18	96	0
SI_	18	96	0	96	48	4
STR	18	192	1
SI_	18	192	1	96	48	5
TAP	19	0	2
STR	19	0	4
SCL	19	0	4	96	24	1
TAP	19	48	3
TAP	19	48	5
TAP	19	144	7
TAP	19	168	0
TAP	19	168	7
STR	20	0	0
SCL	20	0	0	96	24	5
TAP	20	0	6
TAP	20	48	1
TAP	20	48	7
TAP	20	144	3
TAP	20	168	3
TAP	20	168	4
TAP	21	0	2
STR	21	0	4
SCL	21	0	4	96	24	1
TAP	21	48	3
TAP	21	48	5
TAP	21	144	7
TAP	21	168	0
TAP	21	168	7
STR	21	288	1
SI_	21	288	1	96	48	4
STR	22	0	3
SI_	22	0	3	96	48	6
BRK	22	48	3
STR	22	96	5
SI_	22	96	5	96	48	0
BRK	22	144	5
STR	22	192	7
SI_	22	192	7	96	48	2
BRK	22	240	7
TAP	22	336	0
STR	23	0	3
SCR	23	0	3	96	24	6
TAP	23	0	5
TAP	23	48	2
TAP	23	48	4
TAP	23	144	0
TAP	23	168	0
TAP	23	168	7
TAP	24	0	1
STR	24	0	7
SCR	24	0	7	96	24	2
TAP	24	48	0
TAP	24	48	6
TAP	24	144	4
TAP	24	168	3
TAP	24	168	4
STR	25	0	3
SCR	25	0	3	96	24	6
TAP	25	0	5
TAP	25	48	2
TAP	25	48	4
TAP	25	144	0
TAP	25	168	0
TAP	25	168	7
TAP	25	240	6
TAP	25	288	5
TAP	25	336	0
HLD	25	360	1	120
TAP	26	48	0
TAP	26	96	7
TAP	26	120	6
TAP	26	168	4
TAP	26	168	5
TAP	26	240	2
TAP	26	240	3
TAP	26	288	1
TAP	26	312	1
TAP	26	360	7
STR	27	0	7
SI_	27	0	7	96	96	4
TAP	27	48	7
STR	27	192	1
SI_	27	192	1	96	96	6
TAP	27	240	1
STR	28	0	3
SI_	28	0	3	96	96	0
TAP	28	48	3
STR	28	192	5
SI_	28	192	5	96	48	2
TAP	28	240	5
TAP	29	0	2
TAP	29	0	6
TAP	29	96	0
TAP	29	96	4
TAP	29	192	5
STR	29	192	7
SI_	29	192	7	96	192	2
TAP	29	240	0
STR	29	240	6
SI_	29	240	6	96	192	3
HLD	30	240	7	96
TAP	31	0	3
TAP	31	48	3
STR	31	192	2
SCR	31	192	2	96	96	5
TAP	31	240	2
TAP	32	0	0
TAP	32	48	0
STR	32	192	6
SCR	32	192	6	96	96	1
TAP	32	240	6
STR	33	0	2
SI_	33	0	2	96	48	6
HLD	33	48	3	144
HLD	33	192	0	64
HLD	33	256	1	64
HLD	33	320	2	64
HLD	34	0	3	288
STR	34	288	0
SI_	34	288	0	96	288	4

T_REC_TAP	99
T_REC_BRK	3
T_REC_XTP	0
T_REC_HLD	13
T_REC_XHO	0
T_REC_STR	49
T_REC_BST	0
T_REC_XST	0
T_REC_TTP	0
T_REC_THO	0
T_REC_SLD	49
T_REC_ALL	213
T_NUM_TAP	148
T_NUM_BRK	3
T_NUM_HLD	13
T_NUM_SLD	49
T_NUM_ALL	213
T_JUDGE_TAP	151
T_JUDGE_HLD	72
T_JUDGE_SLD	49
T_JUDGE_ALL	272
TTM_EACHPAIRS	28
TTM_SCR_TAP	74000
TTM_SCR_BRK	7800
TTM_SCR_HLD	13000
TTM_SCR_SLD	73500
TTM_SCR_ALL	168300
TTM_SCR_S	163000
TTM_SCR_SS	168000
TTM_RAT_ACV	10017

