VERSION	0.00.00	1.03.00
FES_MODE	0
BPM_DEF	 94.000	 94.000	 94.000	 94.000
MET_DEF	4	4
RESOLUTION	384
CLK_DEF	384
COMPATIBLE_CODE	MA2

BPM	0	0	 94.000
MET	0	0	4	4

STR	3	0	0
SI_	3	0	0	96	96	5
STR	3	192	1
SI_	3	192	1	96	96	4
STR	4	0	7
SI_	4	0	7	96	96	2
STR	4	192	6
SI_	4	192	6	96	96	3
TAP	5	0	2
TAP	5	96	1
STR	5	192	0
SI_	5	192	0	96	288	3
STR	5	240	7
SI_	5	240	7	96	288	4
TAP	7	48	6
TAP	7	120	6
STR	7	192	5
SI_	7	192	5	96	96	2
TAP	7	336	0
TAP	7	360	0
TAP	8	48	1
TAP	8	120	1
STR	8	192	2
SI_	8	192	2	96	96	5
HLD	9	48	0	528
STR	9	192	5
SCL	9	192	5	96	96	2
STR	10	96	2
SCR	10	96	2	96	96	5
STR	11	0	1
SI_	11	0	1	96	96	5
TAP	11	48	1
STR	11	192	0
SI_	11	192	0	96	96	4
TAP	11	240	0
STR	12	0	7
SI_	12	0	7	96	96	3
TAP	12	48	7
STR	12	192	6
SI_	12	192	6	96	96	2
TAP	12	240	6
TAP	13	0	5
TAP	13	96	6
STR	13	192	7
SI_	13	192	7	96	288	4
STR	13	240	0
SI_	13	240	0	96	288	3
STR	15	0	6
SI_	15	0	6	96	96	2
TAP	15	48	6
STR	15	192	7
SI_	15	192	7	96	96	3
TAP	15	240	7
STR	16	0	0
SI_	16	0	0	96	96	4
TAP	16	48	0
STR	16	192	1
SI_	16	192	1	96	96	5
TAP	16	240	1
HLD	17	48	7	144
TAP	17	192	6
TAP	17	240	5
TAP	17	288	4
TAP	17	312	3
TAP	17	360	2
HLD	18	0	3	288
HLD	18	144	4	144
TAP	19	0	0
TAP	19	0	6
TAP	19	48	7
TAP	19	96	0
TAP	19	96	6
TAP	19	144	1
BRK	19	168	1
TAP	19	168	7
TAP	20	0	1
TAP	20	0	7
TAP	20	48	0
TAP	20	96	1
TAP	20	96	7
TAP	20	144	6
TAP	20	168	0
BRK	20	168	6
TAP	21	0	2
TAP	21	0	5
TAP	21	48	4
TAP	21	96	2
TAP	21	96	5
TAP	21	144	3
BRK	21	168	3
TAP	21	168	4
TAP	22	48	2
TAP	22	48	5
TAP	22	144	2
TAP	22	144	5
TAP	22	240	3
TAP	22	240	4
TAP	22	312	3
TAP	22	312	4
TAP	23	0	3
TAP	23	0	6
TAP	23	48	5
TAP	23	96	3
TAP	23	96	6
TAP	23	144	7
TAP	23	168	6
BRK	23	168	7
TAP	24	0	1
TAP	24	0	4
TAP	24	48	2
TAP	24	96	1
TAP	24	96	4
TAP	24	144	0
BRK	24	168	0
TAP	24	168	1
TAP	25	0	4
STR	25	96	3
SI_	25	96	3	96	96	6
STR	25	192	2
SI_	25	192	2	96	96	7
TAP	26	0	3
STR	26	96	4
SI_	26	96	4	96	96	1
STR	26	192	5
SI_	26	192	5	96	96	0
TAP	27	96	4
TAP	27	288	4
TAP	28	96	4
STR	29	0	0
SI_	29	0	0	96	96	5
TAP	29	48	0
STR	29	192	4
SI_	29	192	4	96	96	1
TAP	29	240	4
STR	30	0	7
SI_	30	0	7	96	96	2
TAP	30	48	7
STR	30	192	3
SI_	30	192	3	96	96	6
TAP	30	240	3
TAP	31	96	3
TAP	31	288	3
TAP	32	96	3
HLD	33	48	7	336
BRK	33	192	1
BRK	33	256	5
BRK	33	320	2
STR	34	0	4
SI_	34	0	4	96	192	7
STR	35	0	0
SCR	35	0	0	96	288	3
STR	35	0	7
SCL	35	0	7	96	288	4

T_REC_TAP	78
T_REC_BRK	8
T_REC_XTP	0
T_REC_HLD	5
T_REC_XHO	0
T_REC_STR	31
T_REC_BST	0
T_REC_XST	0
T_REC_TTP	0
T_REC_THO	0
T_REC_SLD	31
T_REC_ALL	153
T_NUM_TAP	109
T_NUM_BRK	8
T_NUM_HLD	5
T_NUM_SLD	31
T_NUM_ALL	153
T_JUDGE_TAP	117
T_JUDGE_HLD	60
T_JUDGE_SLD	31
T_JUDGE_ALL	208
TTM_EACHPAIRS	20
TTM_SCR_TAP	54500
TTM_SCR_BRK	20800
TTM_SCR_HLD	5000
TTM_SCR_SLD	46500
TTM_SCR_ALL	126800
TTM_SCR_S	122250
TTM_SCR_SS	126000
TTM_RAT_ACV	10063

