VERSION	0.00.00	1.03.00
FES_MODE	0
BPM_DEF	 94.000	 94.000	 94.000	 94.000
MET_DEF	4	4
RESOLUTION	384
CLK_DEF	384
COMPATIBLE_CODE	MA2

BPM	0	0	 94.000
MET	0	0	4	4

TAP	2	96	3
TAP	2	288	3
TAP	3	0	4
HLD	3	96	4	96
TAP	3	192	3
HLD	3	288	3	96
TAP	4	0	5
HLD	4	96	5	96
TAP	4	192	2
HLD	4	288	2	96
HLD	5	0	1	96
HLD	5	96	0	96
HLD	5	192	7	96
HLD	5	288	6	96
STR	6	0	5
SI_	6	0	5	96	96	2
TAP	7	0	5
HLD	7	96	1	192
HLD	7	192	3	96
TAP	8	0	2
HLD	8	96	6	192
HLD	8	192	4	96
TAP	9	0	1
TAP	9	192	1
TAP	9	240	2
TAP	9	288	3
TAP	9	336	4
STR	10	0	5
SCR	10	0	5	96	96	0
TAP	11	0	3
TAP	11	48	3
TAP	11	96	2
TAP	11	192	4
TAP	11	240	4
TAP	11	288	5
TAP	12	0	3
TAP	12	48	3
TAP	12	96	2
TAP	12	192	4
TAP	12	240	4
TAP	12	288	5
HLD	13	0	6	96
HLD	13	96	7	96
HLD	13	192	0	96
HLD	13	288	1	96
STR	14	0	2
SI_	14	0	2	96	96	5
TAP	15	0	7
TAP	15	48	7
TAP	15	96	6
TAP	15	192	0
TAP	15	240	0
TAP	15	288	1
TAP	16	0	5
TAP	16	48	5
TAP	16	96	4
TAP	16	192	2
TAP	16	240	2
TAP	16	288	3
TAP	17	0	6
TAP	17	192	6
TAP	17	240	5
TAP	17	288	4
TAP	17	336	3
STR	18	0	2
SI_	18	0	2	96	96	7
TAP	19	0	0
TAP	19	96	0
TAP	19	96	6
HLD	19	168	1	120
HLD	19	168	7	120
TAP	20	0	7
TAP	20	96	1
TAP	20	96	7
HLD	20	168	0	120
HLD	20	168	6	120
TAP	21	0	2
TAP	21	96	2
TAP	21	96	4
HLD	21	168	3	120
HLD	21	168	5	120
TAP	22	0	4
TAP	22	48	5
TAP	22	96	4
TAP	22	192	3
TAP	22	240	2
TAP	22	288	3
TAP	23	0	5
TAP	23	96	3
TAP	23	96	5
HLD	23	168	2	120
HLD	23	168	4	120
TAP	24	0	2
TAP	24	96	2
TAP	24	96	6
HLD	24	168	1	120
HLD	24	168	5	120
TAP	25	0	7
TAP	25	96	0
TAP	25	192	2
TAP	25	240	3
TAP	25	288	4
TAP	25	336	5
TAP	26	0	6
TAP	26	96	6
TAP	26	144	7
TAP	26	192	0
TAP	26	240	1
TAP	26	288	2
BRK	27	0	4
HLD	27	96	4	96
TAP	27	192	2
HLD	27	288	2	96
TAP	28	0	3
HLD	28	96	3	96
TAP	28	192	5
HLD	28	288	5	96
HLD	29	0	6	96
HLD	29	96	7	96
HLD	29	192	0	96
HLD	29	288	1	96
STR	30	0	2
SI_	30	0	2	96	96	5
TAP	31	0	2
HLD	31	96	6	192
HLD	31	192	4	96
TAP	32	0	5
HLD	32	96	1	192
HLD	32	192	3	96
TAP	33	0	1
BRK	33	192	2
BRK	33	192	3
BRK	33	256	3
BRK	33	256	4
BRK	33	320	4
BRK	33	320	5
STR	34	0	6
SCR	34	0	6	96	96	1
STR	35	0	2
SCR	35	0	2	96	96	5
STR	36	0	6
SI_	36	0	6	96	96	2
HLD	36	192	5	528

T_REC_TAP	81
T_REC_BRK	7
T_REC_XTP	0
T_REC_HLD	39
T_REC_XHO	0
T_REC_STR	8
T_REC_BST	0
T_REC_XST	0
T_REC_TTP	0
T_REC_THO	0
T_REC_SLD	8
T_REC_ALL	143
T_NUM_TAP	89
T_NUM_BRK	7
T_NUM_HLD	39
T_NUM_SLD	8
T_NUM_ALL	143
T_JUDGE_TAP	96
T_JUDGE_HLD	200
T_JUDGE_SLD	8
T_JUDGE_ALL	304
TTM_EACHPAIRS	13
TTM_SCR_TAP	44500
TTM_SCR_BRK	18200
TTM_SCR_HLD	39000
TTM_SCR_SLD	12000
TTM_SCR_ALL	113700
TTM_SCR_S	109650
TTM_SCR_SS	113000
TTM_RAT_ACV	10061

