VERSION	0.00.00	1.03.00
FES_MODE	0
BPM_DEF	 94.000	 94.000	 94.000	 94.000
MET_DEF	4	4
RESOLUTION	384
CLK_DEF	384
COMPATIBLE_CODE	MA2

BPM	0	0	 94.000
MET	0	0	4	4

TAP	3	0	1
TAP	3	96	2
TAP	3	192	3
TAP	3	288	4
HLD	4	0	5	288
STR	5	0	6
SI_	5	0	6	96	96	1
STR	6	0	2
SI_	6	0	2	96	96	5
TAP	7	0	6
TAP	7	96	5
TAP	7	192	4
TAP	8	0	1
TAP	8	96	2
TAP	8	192	3
STR	9	0	4
SI_	9	0	4	96	96	7
STR	10	0	0
SI_	10	0	0	96	96	3
TAP	11	0	4
TAP	11	48	4
TAP	11	192	4
TAP	11	240	4
TAP	12	0	3
TAP	12	48	3
TAP	12	192	3
TAP	12	240	3
STR	13	0	5
SI_	13	0	5	96	96	0
STR	14	0	1
SI_	14	0	1	96	96	4
TAP	15	0	2
TAP	15	48	2
TAP	15	192	2
TAP	15	240	2
TAP	16	0	5
TAP	16	48	5
TAP	16	192	5
TAP	16	240	5
STR	17	0	3
SI_	17	0	3	96	96	6
STR	18	0	7
SI_	18	0	7	96	96	2
TAP	19	0	1
STR	19	96	1
SI_	19	96	1	96	96	5
TAP	20	0	6
STR	20	96	6
SI_	20	96	6	96	96	2
TAP	21	0	0
STR	21	96	0
SI_	21	96	0	96	96	4
TAP	22	0	3
TAP	22	96	3
TAP	22	192	4
TAP	22	288	4
TAP	23	0	7
STR	23	96	7
SI_	23	96	7	96	96	3
TAP	24	0	0
STR	24	96	0
SI_	24	96	0	96	96	4
TAP	25	0	5
TAP	25	96	6
TAP	25	192	7
TAP	25	288	0
STR	26	0	1
SI_	26	0	1	96	96	4
STR	26	192	6
SI_	26	192	6	96	96	3
TAP	27	96	2
TAP	27	288	2
TAP	28	96	5
TAP	28	288	5
TAP	29	0	0
TAP	29	96	0
STR	29	192	0
SI_	29	192	0	96	96	5
TAP	30	0	7
TAP	30	96	7
STR	30	192	7
SI_	30	192	7	96	96	2
TAP	31	96	1
TAP	31	288	1
TAP	32	96	6
TAP	32	288	6
BRK	33	0	0
TAP	33	192	0
TAP	33	256	7
TAP	33	320	6
STR	34	0	5
SI_	34	0	5	96	96	2
STR	35	0	3
SI_	35	0	3	96	96	0
BRK	36	0	7

T_REC_TAP	54
T_REC_BRK	2
T_REC_XTP	0
T_REC_HLD	1
T_REC_XHO	0
T_REC_STR	19
T_REC_BST	0
T_REC_XST	0
T_REC_TTP	0
T_REC_THO	0
T_REC_SLD	19
T_REC_ALL	95
T_NUM_TAP	73
T_NUM_BRK	2
T_NUM_HLD	1
T_NUM_SLD	19
T_NUM_ALL	95
T_JUDGE_TAP	75
T_JUDGE_HLD	12
T_JUDGE_SLD	19
T_JUDGE_ALL	106
TTM_EACHPAIRS	0
TTM_SCR_TAP	36500
TTM_SCR_BRK	5200
TTM_SCR_HLD	1000
TTM_SCR_SLD	28500
TTM_SCR_ALL	71200
TTM_SCR_S	68900
TTM_SCR_SS	71000
TTM_RAT_ACV	10028

