VERSION	0.00.00	1.03.00
FES_MODE	0
BPM_DEF	150.000	150.000	150.000	150.000
MET_DEF	4	4
RESOLUTION	384
CLK_DEF	384
COMPATIBLE_CODE	MA2

BPM	0	0	150.000
MET	0	0	4	4

TAP	2	0	0
TAP	2	0	2
TAP	2	96	6
TAP	2	144	6
TAP	2	240	5
TAP	2	288	5
TAP	3	0	0
TAP	3	0	2
TAP	3	96	4
TAP	3	144	4
TAP	3	192	3
TAP	3	264	2
TAP	3	336	1
TAP	4	0	0
TAP	4	0	2
TAP	4	96	5
TAP	4	144	5
TAP	4	240	4
TAP	4	288	1
TAP	4	336	1
TAP	5	96	6
TAP	5	144	6
TAP	5	192	0
TAP	5	264	1
TAP	5	336	2
TAP	6	0	0
TAP	6	0	3
TAP	6	96	7
TAP	6	144	7
TAP	6	192	3
TAP	6	264	2
TAP	6	336	1
TAP	7	0	0
TAP	7	0	3
TAP	7	96	3
TAP	7	96	4
TAP	7	192	2
TAP	7	192	5
TAP	7	288	1
TAP	7	288	6
HLD	8	0	2	192
HLD	8	0	5	192
TAP	8	288	0
TAP	8	336	7
TAP	9	48	5
TAP	9	96	2
TAP	9	144	4
TAP	9	192	3
BRK	9	288	1
BRK	9	288	6
STR	10	0	0
SI_	10	0	0	96	192	3
STR	10	192	7
SI_	10	192	7	96	192	4
STR	11	0	0
SCR	11	0	0	96	192	3
STR	11	192	7
SCL	11	192	7	96	192	4
STR	12	0	3
SCL	12	0	3	96	192	0
STR	12	192	4
SCR	12	192	4	96	192	7
STR	13	0	3
SI_	13	0	3	96	192	7
STR	13	192	4
SI_	13	192	4	96	192	0
TAP	14	192	0
TAP	14	192	6
TAP	14	288	5
TAP	14	288	7
TAP	15	0	1
TAP	15	72	2
TAP	15	144	3
TAP	15	240	5
TAP	15	288	4
HLD	16	0	1	576
TAP	16	288	7
HLD	17	0	5	192
STR	18	0	0
SCR	18	0	0	96	192	3
STR	18	192	7
SCL	18	192	7	96	192	4
STR	19	0	2
SI_	19	0	2	96	192	6
STR	19	192	5
SI_	19	192	5	96	192	1
TAP	20	96	3
TAP	20	192	2
TAP	20	288	7
TAP	21	0	4
TAP	21	0	5
TAP	21	72	3
TAP	21	72	6
HLD	21	144	7	120
TAP	21	288	2
TAP	21	336	1
STR	22	0	4
SCR	22	0	4	96	192	7
STR	22	192	3
SCL	22	192	3	96	192	0
STR	23	0	5
SI_	23	0	5	96	192	1
STR	23	192	2
SI_	23	192	2	96	192	7
TAP	24	96	4
TAP	24	192	5
TAP	24	288	0
TAP	25	0	2
TAP	25	0	3
TAP	25	72	1
TAP	25	72	4
HLD	25	144	0	120
TAP	25	288	5
TAP	25	336	6
STR	26	0	4
SCL	26	0	4	96	192	1
STR	26	192	0
SCL	26	192	0	96	192	5
TAP	27	192	2
TAP	27	192	7
TAP	27	288	0
TAP	27	288	5
TAP	28	0	3
TAP	28	0	4
TAP	28	192	1
TAP	28	192	7
TAP	28	240	0
TAP	28	288	2
TAP	29	0	7
TAP	29	72	6
HLD	29	144	4	120
TAP	29	288	2
TAP	30	0	1
TAP	30	0	3
TAP	30	96	2
TAP	30	96	4
TAP	30	192	0
TAP	30	192	6
TAP	30	240	7
TAP	30	288	5
TAP	31	0	0
TAP	31	72	1
HLD	31	144	3	120
TAP	31	288	5
TAP	31	336	4
TAP	31	336	6
STR	32	0	3
SCR	32	0	3	96	192	6
BRK	32	0	7
TAP	33	0	1
TAP	33	32	2
TAP	33	64	3
TAP	33	96	4
TAP	33	128	5
TAP	33	160	6
TAP	33	192	1
TAP	33	192	5
TAP	33	288	2
BRK	33	288	6
TAP	34	0	0
TAP	34	0	1
TAP	34	96	4
TAP	34	96	5
TAP	34	192	6
TAP	34	192	7
TAP	34	288	2
TAP	34	288	3
TAP	35	0	0
TAP	35	0	6
TAP	35	96	2
TAP	35	96	4
TAP	35	192	1
TAP	35	192	7
TAP	35	288	3
TAP	35	288	5
TAP	36	0	7
TAP	36	72	2
TAP	36	96	1
TAP	36	192	0
TAP	36	264	6
TAP	36	288	5
TAP	37	0	2
TAP	37	0	7
TAP	37	72	0
TAP	37	96	1
TAP	37	192	0
TAP	37	192	5
TAP	37	264	6
TAP	37	288	7
TAP	38	0	2
TAP	38	0	5
TAP	38	72	3
TAP	38	96	4
TAP	38	192	0
TAP	38	192	7
TAP	38	288	1
TAP	38	288	6
TAP	39	0	0
TAP	39	72	2
TAP	39	144	4
TAP	39	240	6
TAP	39	288	6
TAP	39	288	7
HLD	40	0	1	192
TAP	40	192	3
TAP	40	288	6
HLD	41	0	4	192
TAP	41	288	2
TAP	41	288	5
TAP	42	0	0
HLD	42	48	2	144
TAP	42	264	0
TAP	42	288	1
TAP	42	336	3
TAP	43	0	7
HLD	43	48	5	144
TAP	43	264	7
TAP	43	288	6
TAP	43	336	4
TAP	44	96	0
TAP	44	96	7
TAP	44	192	3
TAP	44	192	4
TAP	44	288	2
TAP	44	288	5
TAP	45	0	3
TAP	45	72	5
TAP	45	144	7
TAP	45	240	1
TAP	45	288	0
TAP	45	288	1
TAP	46	0	4
HLD	46	48	6	144
TAP	46	264	4
TAP	46	288	5
TAP	46	336	7
TAP	47	0	3
HLD	47	48	1	144
TAP	47	264	3
TAP	47	288	2
TAP	47	336	0
TAP	48	96	1
TAP	48	96	6
TAP	48	192	5
TAP	48	192	7
TAP	48	288	0
TAP	48	288	2
TAP	49	0	5
TAP	49	72	4
TAP	49	144	6
TAP	49	240	1
TAP	49	240	3
TAP	49	288	0
TAP	49	288	3
TAP	50	0	1
TAP	50	24	0
TAP	50	72	2
TAP	50	96	3
TAP	50	192	7
TAP	50	216	6
TAP	50	264	4
TAP	50	288	5
TAP	51	0	2
TAP	51	24	3
TAP	51	72	4
TAP	51	96	5
TAP	51	192	0
TAP	51	192	2
TAP	51	264	2
TAP	51	264	4
TAP	51	336	4
TAP	51	336	6
TAP	52	0	7
TAP	52	48	6
TAP	52	96	4
TAP	52	96	5
TAP	52	192	0
TAP	52	240	1
TAP	52	288	2
TAP	52	288	3
TAP	53	0	5
TAP	53	72	1
TAP	53	144	7
TAP	53	240	0
TAP	53	240	1
TAP	53	288	0
TAP	53	288	2
TAP	54	0	4
TAP	54	0	5
TAP	54	96	3
TAP	54	96	6
TAP	54	192	2
TAP	54	240	0
TAP	54	288	1
TAP	55	0	0
TAP	55	0	6
TAP	55	72	7
TAP	55	144	4
TAP	55	240	0
TAP	55	288	1
BRK	56	0	0
BRK	56	0	5

T_REC_TAP	244
T_REC_BRK	6
T_REC_XTP	0
T_REC_HLD	14
T_REC_XHO	0
T_REC_STR	19
T_REC_BST	0
T_REC_XST	0
T_REC_TTP	0
T_REC_THO	0
T_REC_SLD	19
T_REC_ALL	302
T_NUM_TAP	263
T_NUM_BRK	6
T_NUM_HLD	14
T_NUM_SLD	19
T_NUM_ALL	302
T_JUDGE_TAP	269
T_JUDGE_HLD	56
T_JUDGE_SLD	19
T_JUDGE_ALL	344
TTM_EACHPAIRS	62
TTM_SCR_TAP	131500
TTM_SCR_BRK	15600
TTM_SCR_HLD	14000
TTM_SCR_SLD	28500
TTM_SCR_ALL	189600
TTM_SCR_S	183350
TTM_SCR_SS	189000
TTM_RAT_ACV	10031

