VERSION	0.00.00	1.03.00
FES_MODE	0
BPM_DEF	150.000	150.000	150.000	150.000
MET_DEF	4	4
RESOLUTION	384
CLK_DEF	384
COMPATIBLE_CODE	MA2

BPM	0	0	150.000
MET	0	0	4	4

HLD	2	0	2	288
HLD	2	0	5	288
HLD	3	0	1	96
HLD	3	0	6	288
TAP	3	192	2
TAP	3	264	2
TAP	3	336	1
HLD	4	0	0	288
HLD	4	0	7	192
TAP	4	288	4
HLD	4	336	4	528
HLD	5	0	3	96
TAP	5	192	3
TAP	5	264	3
TAP	5	336	2
HLD	6	0	1	480
TAP	6	192	4
TAP	6	264	4
TAP	6	336	5
HLD	7	0	6	288
HLD	7	192	3	288
HLD	8	0	2	288
HLD	8	192	1	384
TAP	9	0	0
TAP	9	96	0
TAP	9	192	0
BRK	9	288	0
STR	9	288	7
SI_	9	288	7	96	384	3
HLD	11	0	1	672
HLD	12	0	5	672
HLD	13	0	3	288
TAP	14	0	2
TAP	14	96	1
STR	14	192	0
SI_	14	192	0	96	96	4
TAP	15	0	5
TAP	15	96	6
STR	15	192	7
SI_	15	192	7	96	96	3
HLD	16	0	2	288
HLD	16	192	1	288
HLD	17	0	0	288
HLD	17	192	7	96
HLD	18	0	1	672
HLD	18	0	5	672
HLD	20	0	6	288
STR	20	96	5
SCL	20	96	5	96	192	2
HLD	21	0	1	288
STR	21	96	2
SCR	21	96	2	96	192	5
HLD	22	0	3	768
TAP	22	288	1
TAP	23	288	1
HLD	24	0	2	288
HLD	24	192	3	288
HLD	25	0	4	288
HLD	25	192	5	288
HLD	26	0	6	672
TAP	26	288	0
TAP	27	288	0
HLD	28	0	1	288
TAP	28	192	0
TAP	28	288	7
HLD	29	0	6	288
TAP	29	192	7
TAP	29	288	0
TAP	30	0	4
TAP	30	96	3
HLD	30	192	2	96
TAP	30	288	1
TAP	31	0	3
TAP	31	96	4
HLD	31	192	5	96
TAP	31	288	6
HLD	32	0	7	192
HLD	32	192	0	192
TAP	33	0	6
TAP	33	32	5
TAP	33	64	4
TAP	33	96	3
TAP	33	128	2
TAP	33	160	1
BRK	33	192	0
HLD	33	288	7	1632
TAP	34	0	2
TAP	34	96	2
TAP	34	192	2
TAP	34	288	2
TAP	35	0	2
TAP	35	96	2
TAP	35	192	2
TAP	35	288	2
TAP	36	0	2
TAP	36	96	2
TAP	36	192	2
TAP	36	288	2
TAP	37	0	2
TAP	37	96	2
TAP	37	192	2
TAP	37	288	2
HLD	38	0	2	384
TAP	38	96	4
TAP	38	192	4
TAP	38	288	4
HLD	39	0	4	384
TAP	39	96	6
TAP	39	192	6
TAP	39	288	6
HLD	40	0	6	384
TAP	40	96	0
TAP	40	192	0
TAP	40	288	0
HLD	41	0	0	288
TAP	41	96	2
TAP	41	192	2
TAP	41	288	2
HLD	42	0	2	672
TAP	42	96	1
TAP	42	192	0
TAP	42	288	7
TAP	43	0	6
TAP	43	96	5
TAP	43	192	4
TAP	43	288	3
HLD	44	0	5	384
TAP	44	96	6
TAP	44	192	7
TAP	44	288	0
HLD	45	0	1	384
TAP	45	96	2
TAP	45	192	3
TAP	45	288	4
HLD	46	0	5	672
TAP	46	96	6
TAP	46	192	7
TAP	46	288	0
TAP	47	0	1
TAP	47	96	2
TAP	47	192	3
TAP	47	288	4
HLD	48	0	2	384
TAP	48	96	1
TAP	48	192	0
TAP	48	288	7
HLD	49	0	6	288
TAP	49	96	5
TAP	49	192	4
TAP	49	288	3
TAP	50	0	2
HLD	50	96	2	192
TAP	50	192	6
HLD	50	288	6	192
TAP	51	0	0
HLD	51	96	0	192
TAP	51	192	4
HLD	51	288	4	192
TAP	52	0	1
HLD	52	96	1	192
TAP	52	192	5
HLD	52	288	5	192
TAP	53	0	7
HLD	53	96	7	192
TAP	53	192	3
STR	53	288	3
SI_	53	288	3	96	48	6
STR	54	96	7
SI_	54	96	7	96	48	2
STR	54	288	3
SCL	54	288	3	96	192	0
STR	54	288	7
SCL	54	288	7	96	192	4
TAP	55	288	2
TAP	55	288	6
HLD	56	0	2	768
HLD	56	0	6	768

T_REC_TAP	101
T_REC_BRK	2
T_REC_XTP	0
T_REC_HLD	56
T_REC_XHO	0
T_REC_STR	9
T_REC_BST	0
T_REC_XST	0
T_REC_TTP	0
T_REC_THO	0
T_REC_SLD	9
T_REC_ALL	177
T_NUM_TAP	110
T_NUM_BRK	2
T_NUM_HLD	56
T_NUM_SLD	9
T_NUM_ALL	177
T_JUDGE_TAP	112
T_JUDGE_HLD	433
T_JUDGE_SLD	9
T_JUDGE_ALL	554
TTM_EACHPAIRS	8
TTM_SCR_TAP	55000
TTM_SCR_BRK	5200
TTM_SCR_HLD	56000
TTM_SCR_SLD	13500
TTM_SCR_ALL	129700
TTM_SCR_S	125650
TTM_SCR_SS	129500
TTM_RAT_ACV	10015

