VERSION	0.00.00	1.03.00
FES_MODE	0
BPM_DEF	150.000	150.000	150.000	150.000
MET_DEF	4	4
RESOLUTION	384
CLK_DEF	384
COMPATIBLE_CODE	MA2

BPM	0	0	150.000
MET	0	0	4	4

HLD	2	0	5	288
HLD	3	0	2	288
HLD	4	0	6	288
HLD	5	0	1	288
TAP	6	0	0
TAP	6	72	0
TAP	6	72	7
TAP	7	0	4
TAP	7	72	3
TAP	7	72	4
TAP	8	0	5
TAP	8	96	4
TAP	8	192	3
TAP	8	288	2
HLD	9	0	1	192
TAP	9	96	7
TAP	9	192	7
BRK	9	288	0
BRK	9	288	7
HLD	10	0	1	1440
TAP	10	96	0
TAP	10	288	0
TAP	11	96	7
TAP	11	288	7
TAP	12	96	6
TAP	12	288	6
TAP	13	96	7
TAP	13	288	7
HLD	14	0	7	288
TAP	14	288	6
HLD	15	0	0	288
TAP	15	288	1
HLD	16	0	7	288
TAP	16	96	6
TAP	16	288	6
TAP	17	96	2
TAP	17	192	3
TAP	17	288	4
STR	18	0	5
SI_	18	0	5	96	192	1
TAP	20	96	6
TAP	20	288	7
TAP	21	96	0
TAP	21	288	1
STR	22	0	2
SI_	22	0	2	96	192	6
TAP	24	96	5
TAP	24	288	6
TAP	25	96	7
TAP	25	288	0
TAP	26	0	1
TAP	26	96	0
HLD	26	288	5	96
TAP	27	0	2
TAP	27	96	1
HLD	27	288	2	96
TAP	28	0	6
STR	28	288	6
SCR	28	288	6	96	192	1
TAP	30	0	0
TAP	30	96	7
TAP	30	192	0
TAP	30	288	0
TAP	31	0	1
TAP	31	96	2
TAP	31	192	3
TAP	31	288	4
HLD	32	0	1	96
HLD	32	192	2	96
HLD	33	0	0	192
TAP	33	96	1
TAP	33	192	1
BRK	33	288	0
BRK	33	288	7
HLD	34	0	1	1440
TAP	34	96	0
TAP	34	288	0
TAP	35	96	7
TAP	35	288	7
TAP	36	96	6
TAP	36	288	6
TAP	37	96	5
TAP	37	288	5
HLD	38	0	7	288
TAP	38	288	6
HLD	39	0	0	288
TAP	39	288	1
HLD	40	0	1	96
TAP	40	96	0
TAP	40	288	0
HLD	41	0	7	96
TAP	41	96	0
TAP	41	192	1
TAP	41	288	2
HLD	42	96	6	144
HLD	42	288	7	144
HLD	43	96	0	144
HLD	43	288	1	144
HLD	44	96	2	576
TAP	44	288	0
TAP	45	96	7
TAP	45	288	6
STR	46	96	6
SI_	46	96	6	96	192	2
HLD	48	96	2	576
TAP	48	288	1
TAP	49	96	0
TAP	49	288	7
TAP	50	96	5
TAP	50	288	6
TAP	51	96	7
TAP	51	288	6
TAP	52	96	5
STR	52	288	6
SCR	52	288	6	96	192	1
STR	54	0	1
SI_	54	0	1	96	192	6
TAP	55	96	6
TAP	55	96	7
TAP	55	288	0
HLD	55	288	1	864
HLD	56	0	5	768

T_REC_TAP	79
T_REC_BRK	4
T_REC_XTP	0
T_REC_HLD	27
T_REC_XHO	0
T_REC_STR	6
T_REC_BST	0
T_REC_XST	0
T_REC_TTP	0
T_REC_THO	0
T_REC_SLD	6
T_REC_ALL	122
T_NUM_TAP	85
T_NUM_BRK	4
T_NUM_HLD	27
T_NUM_SLD	6
T_NUM_ALL	122
T_JUDGE_TAP	89
T_JUDGE_HLD	204
T_JUDGE_SLD	6
T_JUDGE_ALL	299
TTM_EACHPAIRS	6
TTM_SCR_TAP	42500
TTM_SCR_BRK	10400
TTM_SCR_HLD	27000
TTM_SCR_SLD	9000
TTM_SCR_ALL	88900
TTM_SCR_S	85850
TTM_SCR_SS	88500
TTM_RAT_ACV	10045

