VERSION	0.00.00	1.03.00
FES_MODE	0
BPM_DEF	150.000	150.000	150.000	150.000
MET_DEF	4	4
RESOLUTION	384
CLK_DEF	384
COMPATIBLE_CODE	MA2

BPM	0	0	150.000
MET	0	0	4	4

TAP	2	0	1
TAP	2	0	6
TAP	3	0	0
TAP	3	0	7
TAP	4	0	2
TAP	4	0	5
TAP	5	0	3
TAP	5	0	4
HLD	6	0	2	192
HLD	7	0	5	192
TAP	8	0	1
TAP	8	192	1
TAP	9	0	0
TAP	9	96	0
BRK	9	192	0
TAP	9	288	0
TAP	9	288	7
HLD	10	0	7	288
HLD	11	0	6	288
TAP	12	96	5
TAP	12	288	5
TAP	13	96	4
TAP	13	288	4
STR	14	0	5
SI_	14	0	5	96	192	2
STR	16	0	1
SI_	16	0	1	96	192	6
TAP	17	288	0
TAP	17	288	7
HLD	18	0	6	288
HLD	19	0	1	288
TAP	20	96	2
TAP	20	288	3
TAP	21	96	4
TAP	21	288	5
HLD	22	0	5	288
HLD	23	0	6	288
TAP	24	96	5
TAP	24	288	4
TAP	25	96	3
TAP	25	288	2
HLD	26	0	1	288
TAP	27	96	0
TAP	27	288	1
STR	28	0	2
SI_	28	0	2	96	192	5
STR	30	0	6
SI_	30	0	6	96	192	1
TAP	32	96	3
TAP	32	288	3
TAP	33	0	2
TAP	33	96	2
BRK	33	192	2
TAP	33	288	1
TAP	33	288	6
HLD	34	0	0	192
TAP	34	288	1
HLD	35	0	1	192
TAP	35	288	2
HLD	36	0	2	192
TAP	36	288	3
HLD	37	0	3	192
TAP	37	288	4
STR	38	0	2
SI_	38	0	2	96	192	5
STR	40	0	6
SI_	40	0	6	96	192	1
TAP	41	288	0
TAP	41	288	7
HLD	42	0	0	288
HLD	42	0	6	288
HLD	43	0	1	288
HLD	43	0	7	288
TAP	44	96	2
TAP	44	288	3
TAP	45	96	4
TAP	45	288	5
HLD	46	0	3	288
HLD	46	0	5	288
HLD	47	0	2	288
HLD	47	0	4	288
TAP	48	96	1
TAP	48	288	0
TAP	49	96	7
TAP	49	288	6
TAP	50	96	5
TAP	50	288	4
TAP	51	96	3
STR	52	0	2
SI_	52	0	2	96	192	5
STR	54	0	6
SI_	54	0	6	96	192	1
TAP	55	288	3
TAP	55	288	4
HLD	56	0	2	672
HLD	56	0	5	672

T_REC_TAP	55
T_REC_BRK	2
T_REC_XTP	0
T_REC_HLD	23
T_REC_XHO	0
T_REC_STR	8
T_REC_BST	0
T_REC_XST	0
T_REC_TTP	0
T_REC_THO	0
T_REC_SLD	8
T_REC_ALL	96
T_NUM_TAP	63
T_NUM_BRK	2
T_NUM_HLD	23
T_NUM_SLD	8
T_NUM_ALL	96
T_JUDGE_TAP	65
T_JUDGE_HLD	142
T_JUDGE_SLD	8
T_JUDGE_ALL	215
TTM_EACHPAIRS	14
TTM_SCR_TAP	31500
TTM_SCR_BRK	5200
TTM_SCR_HLD	23000
TTM_SCR_SLD	12000
TTM_SCR_ALL	71700
TTM_SCR_S	69400
TTM_SCR_SS	71500
TTM_RAT_ACV	10027

